<?xml version="1.0" standalone="no"?>
<!DOCTYPE svg PUBLIC "-//W3C//DTD SVG 1.1//EN" "http://www.w3.org/Graphics/SVG/1.1/DTD/svg11.dtd" >
<svg xmlns="http://www.w3.org/2000/svg">
<metadata></metadata>
<defs>
<font id="webfontregular" horiz-adv-x="1105" >
<font-face units-per-em="2048" ascent="1618" descent="-430" />
<missing-glyph horiz-adv-x="530" />
<glyph horiz-adv-x="0" />
<glyph horiz-adv-x="0" />
<glyph unicode="&#xd;" horiz-adv-x="0" />
<glyph unicode=" "  horiz-adv-x="530" />
<glyph unicode="&#x09;" horiz-adv-x="530" />
<glyph unicode="&#xa0;" horiz-adv-x="530" />
<glyph unicode="!" horiz-adv-x="448" d="M135 72q0 35 25.5 61.5t62.5 26.5t64.5 -27t27.5 -61q0 -37 -27.5 -63.5t-64.5 -26.5t-62.5 26.5t-25.5 63.5zM156 1366h137l-27 -1010h-84z" />
<glyph unicode="&#x22;" horiz-adv-x="649" d="M119 1313q0 31 20.5 52t53.5 21q31 0 52 -21.5t21 -51.5l-43 -439h-61q-43 412 -43 439zM383 1313q0 31 21.5 52t52 21t52 -21.5t21.5 -51.5l-43 -439h-61q-43 412 -43 439z" />
<glyph unicode="#" horiz-adv-x="1185" d="M49 381l27 84h229l146 436h-232l25 84h235l125 381h96l-125 -381h240l125 381h98l-129 -381h228l-23 -84h-231l-148 -436h236l-25 -84h-237l-127 -381h-99l131 381h-241l-129 -381h-97l127 381h-225zM401 465h238l147 436h-239z" />
<glyph unicode="$" horiz-adv-x="1196" d="M98 193l76 88q154 -180 385 -197v573q-100 29 -156.5 50.5t-126 63.5t-102.5 104.5t-33 148.5q0 156 119 255t299 107v187h94v-187q246 -20 400 -190l-78 -86q-121 145 -322 168v-516q96 -27 158.5 -52.5t132.5 -70.5t104.5 -113.5t34.5 -163.5q0 -145 -103 -257.5 t-327 -127.5v-182h-94v182q-297 14 -461 216zM264 1030q0 -98 76 -149.5t219 -92.5v492q-129 -6 -212 -76t-83 -174zM653 84q162 12 235 92t73 178q0 113 -79 172.5t-229 104.5v-547z" />
<glyph unicode="%" horiz-adv-x="1474" d="M70 1049q0 145 90 241t229 96q141 0 231.5 -96t90.5 -241q0 -143 -90.5 -237.5t-231.5 -94.5t-230 94t-89 238zM164 1049q0 -104 63.5 -179t161.5 -75t162.5 74.5t64.5 179.5q0 109 -63.5 183.5t-163.5 74.5q-98 0 -161.5 -75t-63.5 -183zM262 0l873 1366h94l-875 -1366 h-92zM764 309q0 145 90 241.5t231.5 96.5t231.5 -96t90 -242q0 -143 -90 -238.5t-231.5 -95.5t-231.5 95.5t-90 238.5zM858 309q0 -106 63.5 -180t164 -74t163 74t62.5 180q0 109 -62.5 183.5t-163 74.5t-164 -74.5t-63.5 -183.5z" />
<glyph unicode="&#x26;" horiz-adv-x="1308" d="M86 348q0 147 80 240.5t225 173.5q-113 178 -112 313q0 133 94 222t231 89q129 0 208 -68.5t79 -189.5q0 -59 -22.5 -111t-48 -85t-85 -75t-91.5 -59.5t-107 -58.5q59 -82 176 -215q129 -145 182 -200q100 150 156 331l98 -41q-96 -242 -180 -364q98 -103 264 -250h-160 q-78 68 -174 164q-168 -188 -401 -189q-178 0 -295 98.5t-117 274.5zM205 354q0 -133 88 -208.5t213 -75.5q178 0 323 166q-152 156 -204 219q-121 141 -183 229q-113 -66 -175 -141.5t-62 -188.5zM393 1073q0 -111 94 -260q76 39 115 63.5t89 63.5t71.5 84t21.5 100 q0 82 -50 127t-128 45q-88 0 -150.5 -63.5t-62.5 -159.5z" />
<glyph unicode="'" horiz-adv-x="382" d="M119 1313q0 31 20.5 52t53.5 21q31 0 52 -21.5t21 -51.5l-43 -439h-61q-43 412 -43 439z" />
<glyph unicode="(" horiz-adv-x="464" d="M94.5 497.5q-0.5 493.5 272.5 905.5l63 -45q-109 -223 -163 -418t-54 -442.5t54 -442t163 -415.5l-63 -48q-272 412 -272.5 905.5z" />
<glyph unicode=")" horiz-adv-x="464" d="M35 -360q109 219 163 414.5t54 443.5q0 250 -54.5 444.5t-162.5 415.5l63 45q274 -416 274 -905.5t-274 -905.5z" />
<glyph unicode="*" horiz-adv-x="686" d="M76 993l213 109l-213 108l39 68l200 -131l-10 239h76l-12 -239l202 131l37 -68l-211 -108l211 -109l-37 -67l-202 131l12 -240h-76l10 240l-200 -131z" />
<glyph unicode="+" horiz-adv-x="1015" d="M59 647v86h404v432h92v-432h401v-86h-401v-444h-92v444h-404z" />
<glyph unicode="," horiz-adv-x="448" d="M119 -201q49 33 81.5 87.5t37.5 101.5q-14 -2 -21 -2q-37 0 -60.5 24.5t-23.5 61.5q0 35 25.5 61.5t62.5 26.5q43 0 74 -35t31 -96q0 -82 -42 -159t-106 -122z" />
<glyph unicode="-" horiz-adv-x="614" d="M61 446v99h492v-99h-492z" />
<glyph unicode="." horiz-adv-x="448" d="M133 72q0 35 26.5 61.5t63.5 26.5t64.5 -27t27.5 -61q0 -37 -27.5 -64.5t-64.5 -27.5t-63.5 27.5t-26.5 64.5z" />
<glyph unicode="/" horiz-adv-x="577" d="M0 -41l485 1448h93l-486 -1448h-92z" />
<glyph unicode="0" horiz-adv-x="1245" d="M119 682q0 129 28.5 249t85 224.5t158 167.5t234.5 63q131 0 231 -63t157.5 -167.5t86 -224.5t28.5 -249q0 -127 -28.5 -248t-86 -226.5t-157.5 -169t-231 -63.5t-233.5 63.5t-159 169t-85 225.5t-28.5 249zM242 682q0 -113 20.5 -214t62.5 -190.5t119 -142.5t181 -53 q102 0 179 53t119 142.5t61.5 190.5t19.5 214t-19.5 214t-61.5 190.5t-119 141.5t-179 52q-104 0 -181 -52t-119 -141.5t-62.5 -190.5t-20.5 -214z" />
<glyph unicode="1" horiz-adv-x="630" d="M53 1049l301 317h107v-1366h-117v1206l-219 -233z" />
<glyph unicode="2" horiz-adv-x="1191" d="M115 0v96q164 133 262 215t208.5 186.5t169 181.5t97.5 161t39 161q0 137 -93 208t-218 71q-123 0 -220.5 -48t-154.5 -130l-80 74q74 98 192.5 154t262.5 56q170 0 300 -98t130 -287q0 -109 -51.5 -217t-162 -228t-216 -213t-283.5 -237h719v-106h-901z" />
<glyph unicode="3" horiz-adv-x="1114" d="M66 203l79 69q133 -190 383 -190q158 0 251 78t93 213q0 139 -101 207.5t-265 68.5q-106 0 -127 -2v111q20 -2 127 -2q147 0 246.5 65.5t99.5 194.5q0 123 -94 193.5t-234 70.5q-211 0 -366 -174l-74 74q170 207 446 206q186 0 313.5 -96t127.5 -264q0 -96 -51.5 -170 t-113 -105.5t-128.5 -43.5q111 -12 212 -100.5t101 -239.5q0 -172 -124 -282t-337 -110q-160 0 -280.5 64.5t-183.5 163.5z" />
<glyph unicode="4" horiz-adv-x="1107" d="M72 373v104l606 889h158v-887h200v-106h-200v-373h-117v373h-647zM193 479h526v770z" />
<glyph unicode="5" horiz-adv-x="1191" d="M152 199l77 77q137 -195 383 -194q147 0 244.5 94t97.5 236q0 154 -95 243.5t-245 89.5q-186 0 -331 -133l-88 37v717h788v-106h-672v-535q131 127 326 127q182 0 309 -115.5t127 -320.5q0 -199 -133 -320t-328 -121q-305 0 -460 224z" />
<glyph unicode="6" horiz-adv-x="1196" d="M119 682q0 109 17.5 208t58.5 191.5t99 159t148 106t199 39.5q229 0 369 -174l-70 -86q-113 154 -299 154q-106 0 -187 -52t-126 -140.5t-67.5 -190.5t-22.5 -217q0 -43 2 -64q51 84 161.5 156t237.5 72q195 0 317.5 -111.5t122.5 -320.5q0 -178 -124.5 -307.5 t-333.5 -129.5q-106 0 -192.5 39t-144 104.5t-95 157t-54 191.5t-16.5 215zM246 506q8 -104 45 -194.5t120.5 -160t204.5 -69.5q162 0 253.5 101.5t91.5 226.5q0 162 -94.5 245.5t-248.5 83.5q-111 0 -212 -64.5t-160 -168.5z" />
<glyph unicode="7" horiz-adv-x="1028" d="M68 1260v106h895v-82l-584 -1284h-129l573 1260h-755z" />
<glyph unicode="8" horiz-adv-x="1169" d="M121 342q0 133 98 228.5t242 134.5q-135 37 -226.5 119.5t-91.5 209.5q0 170 131.5 261t311.5 91q176 0 309 -91t133 -261q0 -127 -91 -210t-226 -119q143 -39 240.5 -133.5t97.5 -229.5q0 -164 -132 -265.5t-331 -101.5q-201 0 -333 101.5t-132 265.5zM240 350 q0 -121 101.5 -194.5t244.5 -73.5q139 0 242.5 74.5t103.5 193.5q0 74 -41 133.5t-102.5 93t-112.5 52t-90 22.5q-39 -4 -91.5 -22.5t-112.5 -52t-101 -93t-41 -133.5zM262 1022q0 -66 37 -118t96.5 -82.5t102.5 -45t88 -22.5q45 8 88 23.5t102.5 45t96 81.5t36.5 118 q0 119 -92 188.5t-231.5 69.5t-231.5 -69.5t-92 -188.5z" />
<glyph unicode="9" horiz-adv-x="1196" d="M117 952q0 178 125 307.5t333 129.5q106 0 192.5 -39t144 -104.5t95 -157t54 -191.5t16.5 -215q0 -109 -17.5 -208t-58 -191.5t-99 -159t-148.5 -106.5t-199 -40q-231 0 -367 175l68 84q113 -152 299 -152q109 0 189.5 52t125.5 141.5t66.5 190.5t21.5 216v64 q-53 -84 -164.5 -157t-236.5 -73q-195 0 -317.5 112.5t-122.5 321.5zM236 954q0 -162 94 -245.5t248 -83.5q111 0 212 64.5t160 168.5q-8 104 -45 194.5t-121 160t-204 69.5q-162 0 -253 -101.5t-91 -226.5z" />
<glyph unicode=":" horiz-adv-x="448" d="M133 72q0 35 26.5 61.5t63.5 26.5t64.5 -27t27.5 -61q0 -37 -27.5 -64.5t-64.5 -27.5t-63.5 27.5t-26.5 64.5zM133 913q0 37 26.5 64t63.5 27t64.5 -27t27.5 -64q0 -35 -27.5 -61.5t-64.5 -26.5t-63.5 27t-26.5 61z" />
<glyph unicode=";" horiz-adv-x="448" d="M119 -199q49 33 81.5 87.5t37.5 101.5q-14 -2 -21 -2q-37 0 -60.5 24.5t-23.5 61.5q0 35 25.5 61.5t62.5 26.5q43 0 74 -36t31 -97q0 -82 -42 -158t-106 -121zM133 913q0 37 26.5 64t63.5 27t64.5 -27t27.5 -64q0 -35 -27.5 -61.5t-64.5 -26.5t-63.5 27t-26.5 61z" />
<glyph unicode="&#x3c;" horiz-adv-x="1015" d="M59 647v76l897 465v-101l-790 -403l790 -399v-101z" />
<glyph unicode="=" horiz-adv-x="1015" d="M59 442v84h897v-84h-897zM59 842v86h897v-86h-897z" />
<glyph unicode="&#x3e;" horiz-adv-x="1015" d="M59 184v101l791 399l-791 403v101l897 -465v-76z" />
<glyph unicode="?" horiz-adv-x="950" d="M45 1171q158 215 440 215q178 0 285 -91t107 -224q0 -86 -43 -155.5t-104.5 -114.5t-123 -85t-104.5 -90.5t-43 -109.5t61 -104l-82 -52q-84 70 -84 162q0 74 41 133.5t99.5 100.5t118 81t100.5 96t41 126q0 94 -73 157.5t-202 63.5q-223 0 -360 -184zM367 72 q0 35 26.5 61.5t63.5 26.5t63.5 -27t26.5 -61q0 -37 -26.5 -64.5t-63.5 -27.5t-63.5 27.5t-26.5 64.5z" />
<glyph unicode="@" horiz-adv-x="1603" d="M72 500q0 217 113.5 404.5t301 295t398.5 107.5q285 0 465 -189.5t180 -470.5q0 -221 -98.5 -347t-233.5 -126q-80 0 -129 51t-51 123l-2 12q-57 -80 -147.5 -133t-188.5 -53q-141 0 -227 89t-86 239q0 213 150.5 366.5t338.5 153.5q96 0 166 -47t100 -121l27 133h100 l-121 -577q-4 -25 -4 -39q0 -51 30 -82t73 -31q82 0 159.5 95.5t77.5 295.5q0 256 -163.5 424t-421.5 168q-297 0 -519.5 -224t-222.5 -515q0 -248 168 -415t424 -167q203 0 383 117l35 -51q-201 -129 -426 -129q-279 0 -464 185t-185 458zM473 508q0 -111 60.5 -180.5 t166.5 -69.5q195 0 336 207l66 303q-23 66 -82 118t-152 52q-162 0 -278.5 -132t-116.5 -298z" />
<glyph unicode="A" horiz-adv-x="1325" d="M31 0l559 1366h145l559 -1366h-135l-135 336h-723l-135 -336h-135zM340 442h645l-323 799z" />
<glyph unicode="B" horiz-adv-x="1257" d="M170 0v1366h561q172 0 274.5 -94t102.5 -254q0 -123 -70.5 -208t-169.5 -105q109 -16 188 -116t79 -220q0 -170 -105 -269.5t-287 -99.5h-573zM287 106h438q135 0 211 73t76 198q0 113 -76 191.5t-211 78.5h-438v-541zM287 754h430q127 0 197.5 70.5t70.5 181.5 q0 109 -70.5 181.5t-197.5 72.5h-430v-506z" />
<glyph unicode="C" horiz-adv-x="1376" d="M119 682q0 311 198.5 509t493.5 198q303 0 498 -242l-99 -64q-66 90 -172 144.5t-227 54.5q-244 0 -406.5 -168t-162.5 -432q0 -262 162.5 -431t406.5 -169q121 0 227.5 54t171.5 145l99 -62q-197 -244 -498 -244q-295 0 -493.5 198t-198.5 509z" />
<glyph unicode="D" horiz-adv-x="1417" d="M170 0v1366h436q309 0 499.5 -197.5t190.5 -486.5q0 -291 -189.5 -486.5t-500.5 -195.5h-436zM287 106h319q262 0 415 164t153 412t-152 413t-416 165h-319v-1154z" />
<glyph unicode="E" horiz-adv-x="1155" d="M170 0v1366h866v-106h-749v-506h735v-107h-735v-541h749v-106h-866z" />
<glyph unicode="F" horiz-adv-x="1110" d="M170 0v1366h866v-106h-749v-506h735v-107h-735v-647h-117z" />
<glyph unicode="G" horiz-adv-x="1456" d="M119 682q0 311 199.5 509t492.5 198q311 0 514 -234l-88 -63q-74 88 -185.5 139t-240.5 51q-244 0 -406.5 -168t-162.5 -432q0 -262 162.5 -432t406.5 -170q125 0 229.5 49t171.5 117v327h-516v105h633v-477q-203 -228 -518 -228q-293 0 -492.5 199t-199.5 510z" />
<glyph unicode="H" horiz-adv-x="1439" d="M170 0v1366h117v-610h866v610h119v-1366h-119v649h-866v-649h-117z" />
<glyph unicode="I" horiz-adv-x="456" d="M170 0v1366h117v-1366h-117z" />
<glyph unicode="J" horiz-adv-x="962" d="M29 143l71 88q114 -149 271 -149h2q137 0 219 87t82 226v971h119v-971q0 -205 -117 -312.5t-297 -107.5q-221 0 -350 168z" />
<glyph unicode="K" horiz-adv-x="1200" d="M170 0v1366h117v-748l659 748h150l-582 -651l637 -715h-150l-563 643l-151 -166v-477h-117z" />
<glyph unicode="L" horiz-adv-x="1032" d="M170 0v1366h117v-1260h661v-106h-778z" />
<glyph unicode="M" horiz-adv-x="1617" d="M170 0v1366h174l465 -1126l463 1126h176v-1366h-119v1206l-498 -1206h-45l-499 1206v-1206h-117z" />
<glyph unicode="N" horiz-adv-x="1431" d="M170 0v1366h119l856 -1157v1157h117v-1366h-115l-860 1174v-1174h-117z" />
<glyph unicode="O" horiz-adv-x="1564" d="M119 682q0 305 183 506t480 201q295 0 479.5 -201t184.5 -506t-184.5 -506t-479.5 -201q-297 0 -480 201t-183 506zM242 682q0 -262 147 -431t393 -169q242 0 391.5 169t149.5 431q0 264 -148.5 432t-392.5 168q-246 0 -393 -168t-147 -432z" />
<glyph unicode="P" horiz-adv-x="1169" d="M170 0v1366h512q190 0 301 -115.5t111 -283.5t-112 -284t-300 -116h-395v-567h-117zM287 674h383q135 0 218 82t83 211t-83 211t-218 82h-383v-586z" />
<glyph unicode="Q" horiz-adv-x="1564" d="M119 682q0 305 183 506t480 201q295 0 479.5 -201t184.5 -506q0 -313 -195 -514l144 -150l-80 -73l-146 149q-164 -119 -387 -119q-297 0 -480 201t-183 506zM242 682q0 -262 147 -431t393 -169q176 0 310 94l-211 219l82 76l211 -221q150 172 149 432q0 264 -148.5 432 t-392.5 168q-246 0 -393 -168t-147 -432z" />
<glyph unicode="R" horiz-adv-x="1216" d="M170 0v1366h510q180 0 298 -108.5t118 -290.5q0 -178 -109.5 -282.5t-269.5 -111.5l395 -573h-141l-383 565h-301v-565h-117zM287 672h383q135 0 219 83t84 212t-84 211t-219 82h-383v-588z" />
<glyph unicode="S" horiz-adv-x="1189" d="M94 193l76 88q170 -199 426 -199q190 0 275 83t85 189q0 82 -45 138.5t-117.5 87t-159.5 55t-174 52.5t-160 66t-118 106.5t-45 164.5q0 164 129 264.5t320 100.5q293 0 463 -193l-78 -86q-143 172 -391 172q-137 0 -228.5 -70.5t-91.5 -181.5q0 -70 45 -120t118 -77.5 t160 -51t174 -53.5t159.5 -71t117.5 -115.5t45 -179.5q0 -156 -116.5 -271.5t-368.5 -115.5q-322 0 -500 218z" />
<glyph unicode="T" horiz-adv-x="1155" d="M72 1260v106h1011v-106h-446v-1260h-119v1260h-446z" />
<glyph unicode="U" horiz-adv-x="1404" d="M170 524v842h119v-840q0 -209 107.5 -326.5t305.5 -117.5q201 0 307.5 116.5t106.5 327.5v840h119v-842q0 -258 -136.5 -403.5t-396.5 -145.5q-258 0 -395 146.5t-137 402.5z" />
<glyph unicode="V" horiz-adv-x="1325" d="M31 1366h135l496 -1235l497 1235h135l-559 -1366h-145z" />
<glyph unicode="W" horiz-adv-x="1775" d="M39 1366h131l330 -1202l336 1202h106l334 -1202l330 1202h131l-389 -1366h-131l-328 1174l-328 -1174h-131z" />
<glyph unicode="X" horiz-adv-x="1320" d="M37 0l551 700l-520 666h149l442 -580l445 580h147l-518 -664l549 -702h-145l-478 616l-475 -616h-147z" />
<glyph unicode="Y" horiz-adv-x="1265" d="M31 1366h141l461 -672l461 672h141l-543 -782v-584h-119v584z" />
<glyph unicode="Z" horiz-adv-x="1189" d="M102 0v102l824 1158h-824v106h971v-100l-823 -1160h837v-106h-985z" />
<glyph unicode="[" horiz-adv-x="466" d="M76 -389v1778h356v-89h-266v-1601h266v-88h-356z" />
<glyph unicode="\" horiz-adv-x="577" d="M0 1407h92l486 -1448h-93z" />
<glyph unicode="]" horiz-adv-x="466" d="M35 -301h266v1601h-266v89h356v-1778h-356v88z" />
<glyph unicode="^" horiz-adv-x="876" d="M39 682l356 684h86l357 -684h-99l-301 600l-301 -600h-98z" />
<glyph unicode="_" horiz-adv-x="1155" d="M-6 -82h1167v-88h-1167v88z" />
<glyph unicode="`" horiz-adv-x="442" d="M0 1434h127l315 -295h-90z" />
<glyph unicode="a" horiz-adv-x="1067" d="M113 305q0 154 103 241t243 87q209 0 336 -141v200q0 106 -76 167t-191 61q-182 0 -309 -146l-59 74q154 166 381 166q160 0 260 -80t100 -238v-696h-106v117q-129 -141 -336 -142q-137 0 -241.5 89.5t-104.5 240.5zM225 303.5q0 -106.5 75 -175.5t196 -69q195 0 299 136 v217q-106 137 -299 137q-121 0 -196 -69.5t-75 -176z" />
<glyph unicode="b" horiz-adv-x="1169" d="M166 0v1366h106v-537q131 184 344 185q199 0 321 -142.5t122 -378t-122 -377t-321 -141.5q-106 0 -197 51.5t-147 131.5v-158h-106zM272 248q45 -74 135.5 -125t190.5 -51q162 0 254 118.5t92 303.5q0 186 -92 305t-254 119q-98 0 -189.5 -53.5t-136.5 -127.5v-489z" />
<glyph unicode="c" horiz-adv-x="1011" d="M109 495.5q0 221.5 133 370t348 148.5q217 0 350 -168l-74 -66q-100 138 -270 138h-1q-169 0 -271 -120t-101.5 -302.5t102 -303t271.5 -120.5q168 0 270 139l74 -66q-133 -170 -350 -170q-215 0 -348 149.5t-133 371z" />
<glyph unicode="d" horiz-adv-x="1169" d="M109 494q0 233 122.5 376.5t319.5 143.5q213 0 344 -185v537h109v-1366h-109v158q-55 -80 -146.5 -131.5t-197.5 -51.5q-199 0 -320.5 141.5t-121.5 377.5zM223 493.5q0 -184.5 93 -303t253 -118.5q100 0 190.5 51t135.5 125v489q-45 76 -135 128.5t-191 52.5 q-160 0 -253 -120t-93 -304.5z" />
<glyph unicode="e" horiz-adv-x="1161" d="M109 496q0 217 136 367.5t341 150.5q217 0 342 -150.5t125 -374.5v-28h-828q8 -168 112.5 -280.5t274.5 -112.5q197 0 324 137l55 -70q-154 -160 -387 -160q-217 0 -356 145.5t-139 375.5zM225 545h719q-2 143 -95 260t-265 117q-162 0 -257.5 -116t-101.5 -261z" />
<glyph unicode="f" horiz-adv-x="542" d="M37 895v94h164v90q0 143 71.5 225t196.5 82q109 0 188 -69l-51 -74q-55 51 -127 51q-172 0 -172 -215v-90h201v-94h-201v-895h-106v895h-164z" />
<glyph unicode="g" horiz-adv-x="1167" d="M109 496q0 233 122.5 375.5t319.5 142.5q213 0 344 -185v160h109v-979q0 -213 -124 -312t-323 -99q-129 0 -217 31.5t-172 117.5l61 82q63 -76 139 -107.5t189 -31.5q147 0 242.5 78.5t95.5 238.5v156q-55 -80 -146.5 -132t-197.5 -52q-199 0 -320.5 140t-121.5 376z M223 495.5q0 -184.5 93 -302t253 -117.5q100 0 190.5 52t135.5 128v481q-45 76 -135 128.5t-191 52.5q-160 0 -253 -119t-93 -303.5z" />
<glyph unicode="h" d="M166 0v1366h106v-526q59 70 157.5 122t199.5 52q311 0 311 -318v-696h-106v674q0 135 -61.5 189.5t-178.5 54.5q-92 0 -182 -49.5t-140 -120.5v-748h-106z" />
<glyph unicode="i" horiz-adv-x="438" d="M137 1227q0 33 24.5 56.5t57.5 23.5q35 0 58.5 -23.5t23.5 -56.5q0 -35 -23.5 -58.5t-58.5 -23.5q-33 0 -57.5 24.5t-24.5 57.5zM166 0v989h106v-989h-106z" />
<glyph unicode="j" horiz-adv-x="438" d="M-199 -326l47 84q62 -67 144 -67h2q78 0 125 45t47 137v1116h106v-1116q0 -135 -69.5 -204.5t-198.5 -69.5q-115 0 -203 75zM137 1227q0 33 24.5 56.5t57.5 23.5q35 0 58.5 -23.5t23.5 -56.5q0 -35 -23.5 -58.5t-58.5 -23.5q-33 0 -57.5 24.5t-24.5 57.5z" />
<glyph unicode="k" horiz-adv-x="1034" d="M166 0v1366h106v-942l584 565h141l-460 -446l458 -543h-143l-395 471l-185 -174v-297h-106z" />
<glyph unicode="l" horiz-adv-x="438" d="M166 0v1366h106v-1366h-106z" />
<glyph unicode="m" horiz-adv-x="1615" d="M166 0v989h106v-149q37 59 130.5 116.5t189.5 57.5q109 0 174 -53.5t86 -133.5q45 74 137 130.5t191 56.5q270 0 270 -301v-713h-107v692q0 225 -198 226q-78 0 -159 -49.5t-124 -118.5v-750h-108v692q0 225 -199 226q-76 0 -156 -50.5t-127 -119.5v-748h-106z" />
<glyph unicode="n" d="M166 0v989h106v-149q59 70 157.5 122t199.5 52q311 0 311 -322v-692h-106v670q0 135 -61.5 191.5t-178.5 56.5q-92 0 -182 -49.5t-140 -120.5v-748h-106z" />
<glyph unicode="o" horiz-adv-x="1169" d="M109 495.5q0 221.5 131 370t344 148.5q215 0 346 -148.5t131 -370t-131 -371t-346 -149.5q-213 0 -344 149.5t-131 371zM223 496q0 -174 97.5 -299t263.5 -125q168 0 265 123.5t97 300.5q0 174 -97 298t-265 124q-166 0 -263.5 -124t-97.5 -298z" />
<glyph unicode="p" horiz-adv-x="1161" d="M166 -377v1366h106v-155q55 80 146.5 130t197.5 50q199 0 321 -140.5t122 -377.5q0 -236 -122 -378.5t-321 -142.5q-213 0 -344 185v-537h-106zM272 252q45 -74 136.5 -127t189.5 -53q162 0 254 118.5t92 305.5q0 184 -92 303t-254 119q-100 0 -190.5 -51.5 t-135.5 -125.5v-489z" />
<glyph unicode="q" horiz-adv-x="1161" d="M102 495.5q0 235.5 121 377t320 141.5q109 0 200 -50.5t146 -129.5v155h106v-1366h-106v537q-131 -185 -346 -185q-197 0 -319 142.5t-122 378zM217 496q0 -186 92 -305t254 -119q98 0 189.5 53t136.5 127v489q-45 74 -135 125.5t-191 51.5q-162 0 -254 -119t-92 -303z " />
<glyph unicode="r" horiz-adv-x="649" d="M166 0v989h106v-170q145 190 334 191v-117q-18 4 -53 4q-74 0 -160 -55.5t-121 -120.5v-721h-106z" />
<glyph unicode="s" horiz-adv-x="940" d="M80 131l63 80q51 -63 135 -104t185 -41q121 0 192.5 56t71.5 144q0 74 -64.5 118t-155.5 65.5t-183.5 47t-157 85t-64.5 157.5q0 117 95.5 196t257.5 79q223 0 354 -146l-59 -75q-96 131 -295 131q-113 0 -180.5 -51.5t-67.5 -129.5q0 -68 64.5 -106.5t155.5 -60t183 -48 t156.5 -92t64.5 -170.5q0 -127 -96 -209t-274 -82q-240 0 -381 156z" />
<glyph unicode="t" horiz-adv-x="563" d="M23 895v94h163v271h109v-271h201v-94h-201v-688q0 -135 102 -135q68 0 111 47l41 -82q-66 -62 -168 -62q-195 0 -195 215v705h-163z" />
<glyph unicode="u" d="M166 293v696h106v-672q0 -137 61.5 -191t178.5 -54q92 0 181 47t141 117v753h106v-989h-106v145q-68 -74 -162 -122t-195 -48q-156 0 -233.5 77t-77.5 241z" />
<glyph unicode="v" horiz-adv-x="985" d="M14 989h119l361 -864l356 864h121l-418 -989h-121z" />
<glyph unicode="w" horiz-adv-x="1472" d="M35 989h115l262 -839l278 839h92l279 -839l262 839h115l-322 -989h-102l-277 846l-278 -846h-103z" />
<glyph unicode="x" horiz-adv-x="980" d="M35 0l391 508l-369 481h127l308 -407l305 407h127l-369 -481l391 -508h-127l-327 436l-330 -436h-127z" />
<glyph unicode="y" horiz-adv-x="985" d="M14 989h119l361 -864l356 864h121l-512 -1206q-78 -184 -254 -184q-58 0 -105 14l19 98q37 -16 86 -16q100 0 149 121l78 176z" />
<glyph unicode="z" horiz-adv-x="960" d="M115 0v88l585 807h-585v94h723v-86l-592 -809h600v-94h-731z" />
<glyph unicode="{" horiz-adv-x="509" d="M12 459v82q51 0 79 42t28 103v449q0 111 69.5 182.5t159.5 71.5h127v-89h-127q-57 0 -97 -47t-40 -118v-455q0 -139 -94 -180q94 -41 94 -181v-454q0 -72 40 -119t97 -47h127v-88h-127q-90 0 -159.5 70.5t-69.5 181.5v450q0 61 -28 103.5t-79 42.5z" />
<glyph unicode="|" horiz-adv-x="425" d="M170 -41v1448h88v-1448h-88z" />
<glyph unicode="}" horiz-adv-x="509" d="M35 -301h127q57 0 97 47t40 119v454q0 139 94 181q-94 41 -94 180v455q0 72 -40 118.5t-97 46.5h-127v89h127q90 0 159.5 -72t69.5 -182v-449q0 -61 27.5 -103t79.5 -42v-82q-51 0 -79 -42t-28 -104v-450q0 -111 -69.5 -181.5t-159.5 -70.5h-127v88z" />
<glyph unicode="~" horiz-adv-x="1021" d="M55 887q23 217 84.5 346t190.5 129q70 0 117 -42t70.5 -101.5t44 -118t52 -100.5t78.5 -42q148 0 187 408l88 -10q-10 -102 -26.5 -180t-47.5 -151t-81 -110.5t-119.5 -37.5t-117 40.5t-71 100t-44 119t-52 100.5t-78.5 41q-147 0 -185 -404z" />
<glyph unicode="&#xa1;" horiz-adv-x="448" d="M135 920q0 35 25.5 61.5t62.5 26.5t64.5 -27t27.5 -61q0 -37 -27.5 -64t-64.5 -27t-62.5 27t-25.5 64zM156 -377l26 1010h84l29 -1010h-139z" />
<glyph unicode="&#xa2;" horiz-adv-x="1011" d="M109 496q0 203 114.5 347t302.5 167v147h92v-143q195 -10 322 -168l-74 -66q-96 127 -248 138v-846q150 6 248 139l74 -66q-125 -160 -322 -170v-180h-92v185q-188 23 -302.5 167t-114.5 349zM223 495.5q0 -161.5 81 -277.5t222 -140v833q-141 -27 -222 -140.5t-81 -275z " />
<glyph unicode="&#xa3;" horiz-adv-x="1034" d="M37 547v86h256q-6 8 -42 46t-46 51t-37 50t-37 63.5t-19.5 66.5t-9.5 83q0 162 127 277.5t316 115.5q127 0 230.5 -59t154.5 -162l-94 -59q-31 72 -109 125t-174 53q-137 0 -231.5 -79t-94.5 -214q0 -59 21.5 -115.5t45 -87t66.5 -81t62 -74.5h309v-86h-258 q20 -55 21 -109q0 -166 -166 -286q51 18 110 18q70 0 163 -45t153 -45q66 0 123 26.5t81 57.5l56 -96q-100 -96 -264 -97q-96 0 -190.5 48.5t-176.5 48.5q-86 0 -242 -82l-45 98q141 59 216 148.5t75 189.5q0 59 -33 125h-317z" />
<glyph unicode="&#xa5;" horiz-adv-x="1265" d="M31 1366h141l461 -672l461 672h141l-483 -696h471v-86h-531v-242h531v-84h-531v-258h-119v258h-528v84h528v242h-528v86h469z" />
<glyph unicode="&#xa8;" horiz-adv-x="536" d="M-16 1231q0 31 22.5 53.5t53 22.5t53 -22.5t22.5 -53.5t-22.5 -53.5t-53 -22.5t-53 22.5t-22.5 53.5zM401 1231q0 31 22.5 53.5t53.5 22.5t53.5 -22.5t22.5 -53.5t-22.5 -53.5t-53.5 -22.5t-53.5 22.5t-22.5 53.5z" />
<glyph unicode="&#xa9;" horiz-adv-x="1593" d="M90 684q0 293 207 500t500 207t499.5 -207t206.5 -500t-206.5 -500t-499.5 -207t-500 208t-207 499zM147 684q0 -266 190.5 -457.5t459 -191.5t459 190.5t190.5 458.5t-190.5 458.5t-459 190.5t-459 -190.5t-190.5 -458.5zM373 688q0 186 124 311t302 125q184 0 297 -133 l-47 -45q-39 53 -108 85t-142 32q-145 0 -252 -105.5t-107 -271.5q0 -162 106.5 -270.5t252.5 -108.5q74 0 143.5 33t108.5 86l45 -45q-117 -135 -297 -135q-178 0 -302 128t-124 314z" />
<glyph unicode="&#xab;" horiz-adv-x="823" d="M61 498l328 362h117l-328 -362l328 -369h-117zM317 498l328 362h117l-328 -362l328 -369h-117z" />
<glyph unicode="&#xad;" horiz-adv-x="614" d="M61 446v99h492v-99h-492z" />
<glyph unicode="&#xae;" horiz-adv-x="1011" d="M72 952.5q0 180.5 127 307t307 126.5q182 0 308 -126t126 -308q0 -180 -127 -307t-307 -127t-307 127t-127 307.5zM127 952q0 -156 111.5 -267.5t267.5 -111.5t267.5 111.5t111.5 267.5q0 158 -110.5 268.5t-268.5 110.5t-268.5 -110.5t-110.5 -268.5zM342 702v498h203 q66 0 109.5 -42t43.5 -109q0 -72 -46 -110t-81 -38l134 -199h-78l-129 197h-95v-197h-61zM403 958h142q33 0 61.5 27t28.5 64q0 39 -27.5 66.5t-62.5 27.5h-142v-185z" />
<glyph unicode="&#xb4;" horiz-adv-x="442" d="M0 1139l315 295h127l-352 -295h-90z" />
<glyph unicode="&#xb8;" horiz-adv-x="405" d="M0 -328l33 66q72 -57 164 -57q57 0 95 24.5t38 67.5q0 80 -84 80q-51 0 -82 -35l-58 32l64 173h78l-53 -140q31 25 75 25q59 0 97.5 -37t38.5 -98q0 -72 -59.5 -116t-147.5 -44q-129 0 -199 59z" />
<glyph unicode="&#xbb;" horiz-adv-x="823" d="M61 129l328 369l-328 362h117l328 -362l-328 -369h-117zM317 129l328 369l-328 362h117l328 -362l-328 -369h-117z" />
<glyph unicode="&#xbf;" horiz-adv-x="804" d="M74 -88q0 86 43 155.5t104.5 114.5t123 86t104.5 91.5t43 109.5t-62 102l82 52q86 -70 86 -162q0 -74 -41 -133.5t-100.5 -100.5t-118.5 -81t-100 -96t-41 -126q0 -94 73.5 -157.5t202.5 -63.5q125 0 208 47t150 137l74 -75q-158 -215 -440 -215q-178 0 -284.5 91 t-106.5 224zM403 918q0 37 27 63.5t63.5 26.5t64.5 -27t28 -63q0 -35 -28 -62t-64.5 -27t-63.5 27t-27 62z" />
<glyph unicode="&#xc0;" horiz-adv-x="1325" d="M31 0l559 1366h145l559 -1366h-135l-135 336h-723l-135 -336h-135zM332 1776h127l315 -295h-90zM340 442h645l-323 799z" />
<glyph unicode="&#xc1;" horiz-adv-x="1325" d="M31 0l559 1366h145l559 -1366h-135l-135 336h-723l-135 -336h-135zM340 442h645l-323 799zM553 1481l315 295h127l-352 -295h-90z" />
<glyph unicode="&#xc2;" horiz-adv-x="1325" d="M31 0l559 1366h145l559 -1366h-135l-135 336h-723l-135 -336h-135zM340 442h645l-323 799zM410 1481l198 295h111l203 -295h-82l-176 231l-175 -231h-79z" />
<glyph unicode="&#xc4;" horiz-adv-x="1325" d="M31 0l559 1366h145l559 -1366h-135l-135 336h-723l-135 -336h-135zM340 442h645l-323 799zM379 1573q0 31 22.5 53.5t53 22.5t53 -22.5t22.5 -53.5t-22.5 -53.5t-53 -22.5t-53 22.5t-22.5 53.5zM797 1573q0 31 22.5 53.5t53 22.5t53 -22.5t22.5 -53.5t-22.5 -53.5 t-53 -22.5t-53 22.5t-22.5 53.5z" />
<glyph unicode="&#xc7;" horiz-adv-x="1376" d="M119 682q0 311 198.5 509t493.5 198q303 0 498 -242l-99 -64q-66 90 -172 144.5t-227 54.5q-244 0 -406.5 -168t-162.5 -432q0 -262 162.5 -431t406.5 -169q121 0 227.5 54t171.5 145l99 -62q-193 -238 -484 -244l-30 -84q31 25 75 25q59 0 97.5 -37t38.5 -98 q0 -72 -59.5 -116t-147.5 -44q-129 0 -199 60l33 65q72 -57 164 -57q57 0 95 24.5t38 67.5q0 80 -84 80q-51 0 -82 -35l-57 33l43 118q-272 23 -451.5 217.5t-179.5 487.5z" />
<glyph unicode="&#xc8;" horiz-adv-x="1155" d="M170 0v1366h866v-106h-749v-506h735v-107h-735v-541h749v-106h-866zM272 1776h127l316 -295h-90z" />
<glyph unicode="&#xc9;" horiz-adv-x="1155" d="M170 0v1366h866v-106h-749v-506h735v-107h-735v-541h749v-106h-866zM492 1481l315 295h127l-352 -295h-90z" />
<glyph unicode="&#xca;" horiz-adv-x="1155" d="M170 0v1366h866v-106h-749v-506h735v-107h-735v-541h749v-106h-866zM344 1481l199 295h110l203 -295h-82l-176 231l-174 -231h-80z" />
<glyph unicode="&#xcd;" horiz-adv-x="456" d="M119 1481l315 295h127l-352 -295h-90zM170 0v1366h117v-1366h-117z" />
<glyph unicode="&#xce;" horiz-adv-x="456" d="M-25 1481l199 295h111l202 -295h-81l-177 231l-174 -231h-80zM170 0v1366h117v-1366h-117z" />
<glyph unicode="&#xcf;" horiz-adv-x="456" d="M-55 1573q0 31 22.5 53.5t53 22.5t53 -22.5t22.5 -53.5t-22.5 -53.5t-53 -22.5t-53 22.5t-22.5 53.5zM170 0v1366h117v-1366h-117zM362 1573q0 31 23 53.5t53.5 22.5t53 -22.5t22.5 -53.5t-22.5 -53.5t-53 -22.5t-53.5 22.5t-23 53.5z" />
<glyph unicode="&#xd1;" horiz-adv-x="1431" d="M170 0v1366h119l856 -1157v1157h117v-1366h-115l-860 1174v-1174h-117zM399 1489q0 119 50.5 196.5t140.5 77.5q51 0 89 -32.5t55.5 -71.5t47 -72t64.5 -33q49 0 78.5 49.5t29.5 147.5h74q0 -121 -49 -197.5t-139 -76.5q-51 0 -89 32.5t-56.5 72.5t-48.5 73t-64 33 q-49 0 -80 -49.5t-31 -149.5h-72z" />
<glyph unicode="&#xd2;" horiz-adv-x="1564" d="M119 682q0 305 183 506t480 201q295 0 479.5 -201t184.5 -506t-184.5 -506t-479.5 -201q-297 0 -480 201t-183 506zM242 682q0 -262 147 -431t393 -169q242 0 391.5 169t149.5 431q0 264 -148.5 432t-392.5 168q-246 0 -393 -168t-147 -432zM453 1776h127l315 -295h-90z " />
<glyph unicode="&#xd3;" horiz-adv-x="1564" d="M119 682q0 305 183 506t480 201q295 0 479.5 -201t184.5 -506t-184.5 -506t-479.5 -201q-297 0 -480 201t-183 506zM242 682q0 -262 147 -431t393 -169q242 0 391.5 169t149.5 431q0 264 -148.5 432t-392.5 168q-246 0 -393 -168t-147 -432zM672 1481l315 295h127 l-352 -295h-90z" />
<glyph unicode="&#xd4;" horiz-adv-x="1564" d="M119 682q0 305 183 506t480 201q295 0 479.5 -201t184.5 -506t-184.5 -506t-479.5 -201q-297 0 -480 201t-183 506zM242 682q0 -262 147 -431t393 -169q242 0 391.5 169t149.5 431q0 264 -148.5 432t-392.5 168q-246 0 -393 -168t-147 -432zM530 1481l199 295h111 l202 -295h-81l-177 231l-174 -231h-80z" />
<glyph unicode="&#xd6;" horiz-adv-x="1564" d="M119 682q0 305 183 506t480 201q295 0 479.5 -201t184.5 -506t-184.5 -506t-479.5 -201q-297 0 -480 201t-183 506zM242 682q0 -262 147 -431t393 -169q242 0 391.5 169t149.5 431q0 264 -148.5 432t-392.5 168q-246 0 -393 -168t-147 -432zM496 1573q0 31 22.5 53.5 t53 22.5t53 -22.5t22.5 -53.5t-22.5 -53.5t-53 -22.5t-53 22.5t-22.5 53.5zM913 1573q0 31 22.5 53.5t53.5 22.5t53.5 -22.5t22.5 -53.5t-22.5 -53.5t-53.5 -22.5t-53.5 22.5t-22.5 53.5z" />
<glyph unicode="&#xda;" horiz-adv-x="1404" d="M170 524v842h119v-840q0 -209 107.5 -326.5t305.5 -117.5q201 0 307.5 116.5t106.5 327.5v840h119v-842q0 -258 -136.5 -403.5t-396.5 -145.5q-258 0 -395 146.5t-137 402.5zM592 1481l315 295h127l-352 -295h-90z" />
<glyph unicode="&#xdb;" horiz-adv-x="1404" d="M170 524v842h119v-840q0 -209 107.5 -326.5t305.5 -117.5q201 0 307.5 116.5t106.5 327.5v840h119v-842q0 -258 -136.5 -403.5t-396.5 -145.5q-258 0 -395 146.5t-137 402.5zM453 1481l198 295h111l203 -295h-82l-176 231l-175 -231h-79z" />
<glyph unicode="&#xdc;" horiz-adv-x="1404" d="M170 524v842h119v-840q0 -209 107.5 -326.5t305.5 -117.5q201 0 307.5 116.5t106.5 327.5v840h119v-842q0 -258 -136.5 -403.5t-396.5 -145.5q-258 0 -395 146.5t-137 402.5zM420 1573q0 31 22.5 53.5t53 22.5t53 -22.5t22.5 -53.5t-22.5 -53.5t-53 -22.5t-53 22.5 t-22.5 53.5zM838 1573q0 31 22.5 53.5t53 22.5t53 -22.5t22.5 -53.5t-22.5 -53.5t-53 -22.5t-53 22.5t-22.5 53.5z" />
<glyph unicode="&#xdf;" horiz-adv-x="1183" d="M166 0v1042q0 147 98 245.5t258 98.5q135 0 232.5 -66.5t97.5 -174.5q0 -61 -34 -108.5t-81 -78t-94 -59.5t-81 -68.5t-34 -91.5q0 -68 63.5 -105.5t154 -58t179.5 -46t152.5 -91.5t63.5 -170q0 -123 -94.5 -208t-274.5 -85q-133 0 -216 41t-155 117l64 78 q111 -145 307 -145q127 0 195.5 58t68.5 142q0 74 -63.5 118t-153.5 66.5t-179 48t-152.5 85t-63.5 157.5q0 76 50 135.5t109.5 90t109.5 75.5t50 95q0 70 -68.5 111.5t-152.5 41.5q-104 0 -177 -67.5t-73 -180.5v-1042h-106z" />
<glyph unicode="&#xe0;" horiz-adv-x="1067" d="M113 305q0 154 103 241t243 87q209 0 336 -141v200q0 106 -76 167t-191 61q-182 0 -309 -146l-59 74q154 166 381 166q160 0 260 -80t100 -238v-696h-106v117q-129 -141 -336 -142q-137 0 -241.5 89.5t-104.5 240.5zM209 1434h127l315 -295h-90zM225 303.5 q0 -106.5 75 -175.5t196 -69q195 0 299 136v217q-106 137 -299 137q-121 0 -196 -69.5t-75 -176z" />
<glyph unicode="&#xe1;" horiz-adv-x="1067" d="M113 305q0 154 103 241t243 87q209 0 336 -141v200q0 106 -76 167t-191 61q-182 0 -309 -146l-59 74q154 166 381 166q160 0 260 -80t100 -238v-696h-106v117q-129 -141 -336 -142q-137 0 -241.5 89.5t-104.5 240.5zM225 303.5q0 -106.5 75 -175.5t196 -69q195 0 299 136 v217q-106 137 -299 137q-121 0 -196 -69.5t-75 -176zM430 1139l315 295h127l-352 -295h-90z" />
<glyph unicode="&#xe2;" horiz-adv-x="1067" d="M113 305q0 154 103 241t243 87q209 0 336 -141v200q0 106 -76 167t-191 61q-182 0 -309 -146l-59 74q154 166 381 166q160 0 260 -80t100 -238v-696h-106v117q-129 -141 -336 -142q-137 0 -241.5 89.5t-104.5 240.5zM225 303.5q0 -106.5 75 -175.5t196 -69q195 0 299 136 v217q-106 137 -299 137q-121 0 -196 -69.5t-75 -176zM287 1139l198 295h111l203 -295h-82l-176 231l-174 -231h-80z" />
<glyph unicode="&#xe4;" horiz-adv-x="1067" d="M113 305q0 154 103 241t243 87q209 0 336 -141v200q0 106 -76 167t-191 61q-182 0 -309 -146l-59 74q154 166 381 166q160 0 260 -80t100 -238v-696h-106v117q-129 -141 -336 -142q-137 0 -241.5 89.5t-104.5 240.5zM225 303.5q0 -106.5 75 -175.5t196 -69q195 0 299 136 v217q-106 137 -299 137q-121 0 -196 -69.5t-75 -176zM252 1231q0 31 22.5 53.5t53 22.5t53 -22.5t22.5 -53.5t-22.5 -53.5t-53 -22.5t-53 22.5t-22.5 53.5zM670 1231q0 31 22.5 53.5t53 22.5t53 -22.5t22.5 -53.5t-22.5 -53.5t-53 -22.5t-53 22.5t-22.5 53.5z" />
<glyph unicode="&#xe7;" horiz-adv-x="1011" d="M109 496q0 221 133 369.5t348 148.5q217 0 350 -168l-74 -66q-100 137 -270 137.5t-271.5 -119.5t-101.5 -302.5t101.5 -303t271.5 -120.5q168 0 270 139l74 -66q-125 -158 -319 -168l-33 -90q31 25 76 25q59 0 97 -37t38 -98q0 -72 -59.5 -116t-147.5 -44 q-129 0 -199 59l33 66q72 -57 164 -57q57 0 95 24.5t38 67.5q0 80 -84 80q-51 0 -82 -35l-57 33l45 122q-197 16 -316.5 163t-119.5 356z" />
<glyph unicode="&#xe8;" horiz-adv-x="1161" d="M109 496q0 217 136 367.5t341 150.5q217 0 342 -150.5t125 -374.5v-28h-828q8 -168 112.5 -280.5t274.5 -112.5q197 0 324 137l55 -70q-154 -160 -387 -160q-217 0 -356 145.5t-139 375.5zM225 545h719q-2 143 -95 260t-265 117q-162 0 -257.5 -116t-101.5 -261z M256 1434h127l315 -295h-90z" />
<glyph unicode="&#xe9;" horiz-adv-x="1161" d="M109 496q0 217 136 367.5t341 150.5q217 0 342 -150.5t125 -374.5v-28h-828q8 -168 112.5 -280.5t274.5 -112.5q197 0 324 137l55 -70q-154 -160 -387 -160q-217 0 -356 145.5t-139 375.5zM225 545h719q-2 143 -95 260t-265 117q-162 0 -257.5 -116t-101.5 -261z M475 1139l316 295h127l-353 -295h-90z" />
<glyph unicode="&#xea;" horiz-adv-x="1161" d="M109 496q0 217 136 367.5t341 150.5q217 0 342 -150.5t125 -374.5v-28h-828q8 -168 112.5 -280.5t274.5 -112.5q197 0 324 137l55 -70q-154 -160 -387 -160q-217 0 -356 145.5t-139 375.5zM225 545h719q-2 143 -95 260t-265 117q-162 0 -257.5 -116t-101.5 -261z M334 1139l198 295h111l203 -295h-82l-176 231l-174 -231h-80z" />
<glyph unicode="&#xed;" horiz-adv-x="438" d="M109 1139l315 295h127l-352 -295h-90zM166 0v989h106v-989h-106z" />
<glyph unicode="&#xee;" horiz-adv-x="438" d="M-37 1139l199 295h110l203 -295h-82l-176 231l-174 -231h-80zM166 0v989h106v-989h-106z" />
<glyph unicode="&#xef;" horiz-adv-x="438" d="M-66 1231q0 31 23 53.5t53.5 22.5t53 -22.5t22.5 -53.5t-22.5 -53.5t-53 -22.5t-53.5 22.5t-23 53.5zM166 0v989h106v-989h-106zM352 1231q0 31 22.5 53.5t53.5 22.5t53.5 -22.5t22.5 -53.5t-22.5 -53.5t-53.5 -22.5t-53.5 22.5t-22.5 53.5z" />
<glyph unicode="&#xf1;" d="M166 0v989h106v-149q59 70 157.5 122t199.5 52q311 0 311 -322v-692h-106v670q0 135 -61.5 191.5t-178.5 56.5q-92 0 -182 -49.5t-140 -120.5v-748h-106zM240 1147q0 119 50 196.5t140 77.5q51 0 89 -32.5t55.5 -71.5t47 -72t64.5 -33q49 0 79 49.5t30 147.5h73 q0 -121 -49 -197.5t-139 -76.5q-51 0 -89 32.5t-56.5 72.5t-48 73t-64.5 33q-49 0 -80 -49.5t-31 -149.5h-71z" />
<glyph unicode="&#xf2;" horiz-adv-x="1169" d="M109 495.5q0 221.5 131 370t344 148.5q215 0 346 -148.5t131 -370t-131 -371t-346 -149.5q-213 0 -344 149.5t-131 371zM223 496q0 -174 97.5 -299t263.5 -125q168 0 265 123.5t97 300.5q0 174 -97 298t-265 124q-166 0 -263.5 -124t-97.5 -298zM254 1434h127l315 -295 h-90z" />
<glyph unicode="&#xf3;" horiz-adv-x="1169" d="M109 495.5q0 221.5 131 370t344 148.5q215 0 346 -148.5t131 -370t-131 -371t-346 -149.5q-213 0 -344 149.5t-131 371zM223 496q0 -174 97.5 -299t263.5 -125q168 0 265 123.5t97 300.5q0 174 -97 298t-265 124q-166 0 -263.5 -124t-97.5 -298zM475 1139l316 295h127 l-353 -295h-90z" />
<glyph unicode="&#xf4;" horiz-adv-x="1169" d="M109 495.5q0 221.5 131 370t344 148.5q215 0 346 -148.5t131 -370t-131 -371t-346 -149.5q-213 0 -344 149.5t-131 371zM223 496q0 -174 97.5 -299t263.5 -125q168 0 265 123.5t97 300.5q0 174 -97 298t-265 124q-166 0 -263.5 -124t-97.5 -298zM332 1139l198 295h111 l203 -295h-82l-176 231l-174 -231h-80z" />
<glyph unicode="&#xf6;" horiz-adv-x="1169" d="M109 495.5q0 221.5 131 370t344 148.5q215 0 346 -148.5t131 -370t-131 -371t-346 -149.5q-213 0 -344 149.5t-131 371zM223 496q0 -174 97.5 -299t263.5 -125q168 0 265 123.5t97 300.5q0 174 -97 298t-265 124q-166 0 -263.5 -124t-97.5 -298zM301 1231q0 31 22.5 53.5 t53.5 22.5t53.5 -22.5t22.5 -53.5t-22.5 -53.5t-53.5 -22.5t-53.5 22.5t-22.5 53.5zM719 1231q0 31 22.5 53.5t53 22.5t53 -22.5t22.5 -53.5t-22.5 -53.5t-53 -22.5t-53 22.5t-22.5 53.5z" />
<glyph unicode="&#xfa;" d="M166 293v696h106v-672q0 -137 61.5 -191t178.5 -54q92 0 181 47t141 117v753h106v-989h-106v145q-68 -74 -162 -122t-195 -48q-156 0 -233.5 77t-77.5 241zM442 1139l316 295h127l-353 -295h-90z" />
<glyph unicode="&#xfb;" d="M166 293v696h106v-672q0 -137 61.5 -191t178.5 -54q92 0 181 47t141 117v753h106v-989h-106v145q-68 -74 -162 -122t-195 -48q-156 0 -233.5 77t-77.5 241zM297 1139l199 295h110l203 -295h-82l-176 231l-174 -231h-80z" />
<glyph unicode="&#xfc;" d="M166 293v696h106v-672q0 -137 61.5 -191t178.5 -54q92 0 181 47t141 117v753h106v-989h-106v145q-68 -74 -162 -122t-195 -48q-156 0 -233.5 77t-77.5 241zM272 1231q0 31 22.5 53.5t53.5 22.5t53.5 -22.5t22.5 -53.5t-22.5 -53.5t-53.5 -22.5t-53.5 22.5t-22.5 53.5z M690 1231q0 31 22.5 53.5t53.5 22.5t53.5 -22.5t22.5 -53.5t-22.5 -53.5t-53.5 -22.5t-53.5 22.5t-22.5 53.5z" />
<glyph unicode="&#x104;" horiz-adv-x="1325" d="M31 0l559 1366h145l559 -1366q-162 -78 -161 -203q0 -111 98 -110q83 0 112 90l64 -33q-53 -125 -176 -125q-76 0 -125 44t-49 130q0 119 114 207h-12l-135 336h-723l-135 -336h-135zM340 442h645l-323 799z" />
<glyph unicode="&#x105;" horiz-adv-x="1067" d="M113 305q0 154 103 241t243 87q209 0 336 -141v200q0 106 -76 167t-191 61q-182 0 -309 -146l-59 74q154 166 381 166q160 0 260 -80t100 -238v-696q-162 -78 -162 -203q0 -111 99 -110q83 0 112 90l64 -33q-53 -125 -176 -125q-76 0 -125 44t-49 130q0 127 131 217v107 q-129 -141 -336 -142q-137 0 -241.5 89.5t-104.5 240.5zM225 303.5q0 -106.5 75 -175.5t196 -69q195 0 299 136v217q-106 137 -299 137q-121 0 -196 -69.5t-75 -176z" />
<glyph unicode="&#x106;" horiz-adv-x="1376" d="M119 682q0 311 198.5 509t493.5 198q303 0 498 -242l-99 -64q-66 90 -172 144.5t-227 54.5q-244 0 -406.5 -168t-162.5 -432q0 -262 162.5 -431t406.5 -169q121 0 227.5 54t171.5 145l99 -62q-197 -244 -498 -244q-295 0 -493.5 198t-198.5 509zM700 1481l316 295h127 l-352 -295h-91z" />
<glyph unicode="&#x107;" horiz-adv-x="1011" d="M109 495.5q0 221.5 133 370t348 148.5q217 0 350 -168l-74 -66q-100 137 -270 137.5t-271.5 -119.5t-101.5 -302.5t101.5 -303t271.5 -120.5q168 0 270 139l74 -66q-133 -170 -350 -170q-215 0 -348 149.5t-133 371zM479 1139l316 295h127l-353 -295h-90z" />
<glyph unicode="&#x118;" horiz-adv-x="1155" d="M170 0v1366h866v-106h-749v-506h735v-107h-735v-541h749v-106q-162 -78 -162 -203q0 -111 99 -110q84 0 112 90l64 -33q-53 -125 -176 -125q-76 0 -125 44t-49 130q0 119 114 207h-743z" />
<glyph unicode="&#x119;" horiz-adv-x="1161" d="M109 496q0 217 136 367.5t341 150.5q217 0 342 -150.5t125 -374.5v-28h-828q8 -168 112.5 -280.5t274.5 -112.5q197 0 324 137l55 -70q-98 -100 -215 -135q-162 -78 -162 -203q0 -111 99 -110q84 0 112 90l64 -33q-53 -125 -176 -125q-76 0 -125 44t-49 130q0 100 86 182 h-21q-217 0 -356 145.5t-139 375.5zM225 545h719q-2 143 -95 260t-265 117q-162 0 -257.5 -116t-101.5 -261z" />
<glyph unicode="&#x11e;" horiz-adv-x="1456" d="M119 682q0 311 199.5 509t492.5 198q311 0 514 -234l-88 -63q-74 88 -185.5 139t-240.5 51q-244 0 -406.5 -168t-162.5 -432q0 -262 162.5 -432t406.5 -170q125 0 229.5 49t171.5 117v327h-516v105h633v-477q-203 -228 -518 -228q-293 0 -492.5 199t-199.5 510zM457 1630 l59 51q111 -154 301 -153q188 0 301 153l58 -51q-133 -180 -359 -180q-223 0 -360 180z" />
<glyph unicode="&#x11f;" horiz-adv-x="1167" d="M109 496q0 233 122.5 375.5t319.5 142.5q213 0 344 -185v160h109v-979q0 -213 -124 -312t-323 -99q-129 0 -217 31.5t-172 117.5l61 82q63 -76 139 -107.5t189 -31.5q147 0 242.5 78.5t95.5 238.5v156q-55 -80 -146.5 -132t-197.5 -52q-199 0 -320.5 140t-121.5 376z M223 495.5q0 -184.5 93 -302t253 -117.5q100 0 190.5 52t135.5 128v481q-45 76 -135 128.5t-191 52.5q-160 0 -253 -119t-93 -303.5zM225 1288l60 51q111 -154 301 -153q188 0 301 153l57 -51q-133 -180 -358 -180q-223 0 -361 180z" />
<glyph unicode="&#x130;" horiz-adv-x="456" d="M154 1569q0 31 22.5 54.5t54.5 23.5q31 0 53.5 -24t22.5 -54q0 -33 -22.5 -55.5t-53.5 -22.5q-33 0 -55 22.5t-22 55.5zM170 0v1366h117v-1366h-117z" />
<glyph unicode="&#x131;" horiz-adv-x="438" d="M166 0v989h106v-989h-106z" />
<glyph unicode="&#x13f;" horiz-adv-x="1032" d="M170 0v1366h117v-1260h661v-106h-778zM641 700q0 35 26.5 61.5t63.5 26.5t64.5 -26.5t27.5 -61.5q0 -37 -27.5 -63.5t-64.5 -26.5t-63.5 27t-26.5 63z" />
<glyph unicode="&#x140;" horiz-adv-x="559" d="M166 0v1366h106v-1366h-106zM408 502q0 35 26.5 61.5t63.5 26.5t64.5 -26.5t27.5 -61.5q0 -37 -27.5 -63.5t-64.5 -26.5t-63.5 26.5t-26.5 63.5z" />
<glyph unicode="&#x141;" horiz-adv-x="1077" d="M23 477v109l192 110v670h117v-602l215 127v-109l-215 -127v-549h661v-106h-778v588z" />
<glyph unicode="&#x142;" horiz-adv-x="567" d="M23 487v95l208 118v666h107v-604l207 119v-95l-207 -118v-668h-107v606z" />
<glyph unicode="&#x143;" horiz-adv-x="1431" d="M170 0v1366h119l856 -1157v1157h117v-1366h-115l-860 1174v-1174h-117zM635 1481l315 295h127l-352 -295h-90z" />
<glyph unicode="&#x144;" d="M166 0v989h106v-149q59 70 157.5 122t199.5 52q311 0 311 -322v-692h-106v670q0 135 -61.5 191.5t-178.5 56.5q-92 0 -182 -49.5t-140 -120.5v-748h-106zM442 1139l316 295h127l-353 -295h-90z" />
<glyph unicode="&#x15a;" horiz-adv-x="1189" d="M94 193l76 88q170 -199 426 -199q190 0 275 83t85 189q0 82 -45 138.5t-117.5 87t-159.5 55t-174 52.5t-160 66t-118 106.5t-45 164.5q0 164 129 264.5t320 100.5q293 0 463 -193l-78 -86q-143 172 -391 172q-137 0 -228.5 -70.5t-91.5 -181.5q0 -70 45 -120t118 -77.5 t160 -51t174 -53.5t159.5 -71t117.5 -115.5t45 -179.5q0 -156 -116.5 -271.5t-368.5 -115.5q-322 0 -500 218zM477 1481l316 295h127l-353 -295h-90z" />
<glyph unicode="&#x15b;" horiz-adv-x="940" d="M80 131l63 80q51 -63 135 -104t185 -41q121 0 192.5 56t71.5 144q0 74 -64.5 118t-155.5 65.5t-183.5 47t-157 85t-64.5 157.5q0 117 95.5 196t257.5 79q223 0 354 -146l-59 -75q-96 131 -295 131q-113 0 -180.5 -51.5t-67.5 -129.5q0 -68 64.5 -106.5t155.5 -60t183 -48 t156.5 -92t64.5 -170.5q0 -127 -96 -209t-274 -82q-240 0 -381 156zM348 1139l316 295h127l-353 -295h-90z" />
<glyph unicode="&#x15e;" horiz-adv-x="1189" d="M94 193l76 88q170 -199 426 -199q190 0 275 83t85 189q0 82 -45 138.5t-117.5 87t-159.5 55t-174 52.5t-160 66t-118 106.5t-45 164.5q0 164 129 264.5t320 100.5q293 0 463 -193l-78 -86q-143 172 -391 172q-137 0 -228.5 -70.5t-91.5 -181.5q0 -70 45 -120t118 -77.5 t160 -51t174 -53.5t159.5 -71t117.5 -115.5t45 -179.5q0 -152 -111.5 -266t-351.5 -121l-34 -92q31 25 75 25q59 0 97.5 -37t38.5 -98q0 -72 -59.5 -116t-147.5 -44q-129 0 -199 59l33 66q72 -57 164 -57q57 0 95 24.5t38 67.5q0 80 -84 80q-51 0 -82 -35l-57 32l47 127 q-283 18 -447 216z" />
<glyph unicode="&#x15f;" horiz-adv-x="940" d="M80 131l63 80q51 -63 135 -104t185 -41q121 0 192.5 56t71.5 144q0 74 -64.5 118t-155.5 65.5t-183.5 47t-157 85t-64.5 157.5q0 117 95.5 196t257.5 79q223 0 354 -146l-59 -75q-96 131 -295 131q-113 0 -180.5 -51.5t-67.5 -129.5q0 -68 64.5 -106.5t155.5 -60t183 -48 t156.5 -92t64.5 -170.5q0 -121 -89 -200.5t-253 -88.5l-34 -94q31 25 75 25q59 0 97.5 -37t38.5 -98q0 -72 -59.5 -116t-147.5 -44q-129 0 -199 59l33 66q72 -57 164 -57q57 0 95 24.5t38 67.5q0 80 -84 80q-51 0 -82 -35l-57 32l45 127q-205 12 -332 154z" />
<glyph unicode="&#x179;" horiz-adv-x="1189" d="M102 0v102l824 1158h-824v106h971v-100l-823 -1160h837v-106h-985zM485 1481l316 295h127l-353 -295h-90z" />
<glyph unicode="&#x17a;" horiz-adv-x="960" d="M115 0v88l585 807h-585v94h723v-86l-592 -809h600v-94h-731zM369 1139l315 295h127l-352 -295h-90z" />
<glyph unicode="&#x17b;" horiz-adv-x="1189" d="M102 0v102l824 1158h-824v106h971v-100l-823 -1160h837v-106h-985zM516 1569q0 31 22.5 54.5t55.5 23.5q31 0 53.5 -24t22.5 -54q0 -33 -22.5 -55.5t-53.5 -22.5q-33 0 -55.5 22.5t-22.5 55.5z" />
<glyph unicode="&#x17c;" horiz-adv-x="960" d="M115 0v88l585 807h-585v94h723v-86l-592 -809h600v-94h-731zM401 1227q0 31 22.5 54.5t55.5 23.5q31 0 53.5 -24t22.5 -54q0 -33 -22.5 -55.5t-53.5 -22.5q-33 0 -55.5 22.5t-22.5 55.5z" />
<glyph unicode="&#x2c6;" horiz-adv-x="512" d="M0 1139l199 295h110l203 -295h-82l-176 231l-174 -231h-80z" />
<glyph unicode="&#x2da;" horiz-adv-x="389" d="M0 1319q0 80 57.5 138.5t139.5 58.5q80 0 136 -58.5t56 -138.5q0 -82 -56 -139.5t-136 -57.5q-82 0 -139.5 57.5t-57.5 139.5zM66 1319q0 -53 38.5 -92t92 -39t91.5 39t38 92t-38 92t-91.5 39t-92 -39t-38.5 -92z" />
<glyph unicode="&#x2dc;" horiz-adv-x="628" d="M0 1147q0 119 50 196.5t140 77.5q51 0 89 -32.5t55.5 -71.5t47.5 -72t64 -33q49 0 79 49.5t30 147.5h74q0 -121 -49.5 -197.5t-139.5 -76.5q-51 0 -89 32.5t-56.5 72.5t-48 73t-64.5 33q-49 0 -79.5 -49.5t-30.5 -149.5h-72z" />
<glyph unicode="&#x401;" horiz-adv-x="1155" d="M170 0v1366h866v-106h-749v-506h735v-107h-735v-541h749v-106h-866zM319 1573q0 31 23 53.5t53.5 22.5t53 -22.5t22.5 -53.5t-22.5 -53.5t-53 -22.5t-53.5 22.5t-23 53.5zM737 1573q0 31 22.5 53.5t53.5 22.5t53.5 -22.5t22.5 -53.5t-22.5 -53.5t-53.5 -22.5t-53.5 22.5 t-22.5 53.5z" />
<glyph unicode="&#x402;" horiz-adv-x="1583" d="M72 1260v106h1011v-106h-446v-410q176 45 342 45q227 0 345 -125t118 -338v-12q0 -221 -119 -333t-301 -112v107q139 0 220 90t81 248v12q0 176 -89 266t-261 90q-168 0 -336 -43v-745h-119v1260h-446z" />
<glyph unicode="&#x403;" horiz-adv-x="1110" d="M170 0v1366h866v-106h-749v-1260h-117zM481 1481l316 295h127l-353 -295h-90z" />
<glyph unicode="&#x404;" horiz-adv-x="1376" d="M119 682q0 311 198.5 509t493.5 198q303 0 498 -242l-99 -64q-66 90 -172 144.5t-227 54.5q-225 0 -384 -146.5t-181 -381.5h766v-107h-770q12 -248 172.5 -406.5t396.5 -158.5q121 0 227.5 54t171.5 145l99 -62q-197 -244 -498 -244q-295 0 -493.5 198t-198.5 509z" />
<glyph unicode="&#x405;" horiz-adv-x="1189" d="M94 193l76 88q170 -199 426 -199q190 0 275 83t85 189q0 82 -45 138.5t-117.5 87t-159.5 55t-174 52.5t-160 66t-118 106.5t-45 164.5q0 164 129 264.5t320 100.5q293 0 463 -193l-78 -86q-143 172 -391 172q-137 0 -228.5 -70.5t-91.5 -181.5q0 -70 45 -120t118 -77.5 t160 -51t174 -53.5t159.5 -71t117.5 -115.5t45 -179.5q0 -156 -116.5 -271.5t-368.5 -115.5q-322 0 -500 218z" />
<glyph unicode="&#x406;" horiz-adv-x="456" d="M170 0v1366h117v-1366h-117z" />
<glyph unicode="&#x407;" horiz-adv-x="456" d="M-55 1573q0 31 22.5 53.5t53 22.5t53 -22.5t22.5 -53.5t-22.5 -53.5t-53 -22.5t-53 22.5t-22.5 53.5zM170 0v1366h117v-1366h-117zM362 1573q0 31 23 53.5t53.5 22.5t53 -22.5t22.5 -53.5t-22.5 -53.5t-53 -22.5t-53.5 22.5t-23 53.5z" />
<glyph unicode="&#x408;" horiz-adv-x="962" d="M29 143l71 88q115 -150 273 -149q137 0 219 87t82 226v971h119v-971q0 -205 -117 -312.5t-297 -107.5q-221 0 -350 168z" />
<glyph unicode="&#x409;" horiz-adv-x="2152" d="M72 -25v107q94 0 153.5 46t108.5 182t82 382l88 674h768v-567h393q188 0 301 -116t113 -284t-112 -283.5t-302 -115.5h-512v1260h-545l-73 -578q-23 -180 -58 -308t-73.5 -205t-94 -121t-109.5 -58.5t-128 -14.5zM1272 106h381q135 0 218 82t83 211t-83 211t-218 82h-381 v-586z" />
<glyph unicode="&#x40a;" horiz-adv-x="2152" d="M170 0v1366h117v-610h866v610h119v-610h416q178 0 284.5 -109.5t106.5 -269.5t-105.5 -268.5t-285.5 -108.5h-535v649h-866v-649h-117zM1272 106h405q123 0 200 76t77 195q0 121 -77 196.5t-200 75.5h-405v-543z" />
<glyph unicode="&#x40b;" horiz-adv-x="1599" d="M72 1260v106h1011v-106h-446v-410q176 45 342 45q227 0 345 -122t118 -327v-446h-119v446q0 166 -90 254t-260 88q-168 0 -336 -43v-745h-119v1260h-446z" />
<glyph unicode="&#x40c;" horiz-adv-x="1200" d="M170 0v1366h117v-748l659 748h150l-582 -651l637 -715h-150l-563 643l-151 -166v-477h-117zM498 1481l315 295h127l-352 -295h-90z" />
<glyph unicode="&#x40e;" horiz-adv-x="1265" d="M31 96l63 88q82 -102 191 -102q76 0 123 43t110 162l47 88l-534 991h135l467 -883l467 883h135l-614 -1135q-72 -133 -143.5 -194.5t-188.5 -61.5q-170 0 -258 121zM274 1630l60 51q111 -154 301 -153q188 0 301 153l57 -51q-133 -180 -358 -180q-223 0 -361 180z" />
<glyph unicode="&#x40f;" horiz-adv-x="1439" d="M170 0v1366h117v-1260h866v1260h119v-1366h-492v-260h-118v260h-492z" />
<glyph unicode="&#x410;" horiz-adv-x="1325" d="M31 0l559 1366h145l559 -1366h-135l-135 336h-723l-135 -336h-135zM340 442h645l-323 799z" />
<glyph unicode="&#x411;" horiz-adv-x="1169" d="M170 0v1366h852v-106h-735v-461h395q188 0 300 -116t112 -284t-111 -283.5t-301 -115.5h-512zM287 106h383q135 0 218 82t83 211t-83 211t-218 82h-383v-586z" />
<glyph unicode="&#x412;" horiz-adv-x="1257" d="M170 0v1366h561q172 0 274.5 -94t102.5 -254q0 -123 -70.5 -208t-169.5 -105q109 -16 188 -116t79 -220q0 -170 -105 -269.5t-287 -99.5h-573zM287 106h438q135 0 211 73t76 198q0 113 -76 191.5t-211 78.5h-438v-541zM287 754h430q127 0 197.5 70.5t70.5 181.5 q0 109 -70.5 181.5t-197.5 72.5h-430v-506z" />
<glyph unicode="&#x413;" horiz-adv-x="1110" d="M170 0v1366h866v-106h-749v-1260h-117z" />
<glyph unicode="&#x414;" horiz-adv-x="1468" d="M72 100q96 2 154.5 43t107.5 172t82 377l88 674h768v-1260h121v-358h-117v252h-1086v-252h-118v352zM301 106h852v1154h-545l-73 -578q-59 -461 -234 -576z" />
<glyph unicode="&#x415;" horiz-adv-x="1155" d="M170 0v1366h866v-106h-749v-506h735v-107h-735v-541h749v-106h-866z" />
<glyph unicode="&#x416;" horiz-adv-x="1826" d="M49 0l637 715l-582 651h150l600 -682v682h119v-682l598 682h151l-581 -651l637 -715h-150l-563 643l-92 -102v-541h-119v541l-92 102l-563 -643h-150z" />
<glyph unicode="&#x417;" horiz-adv-x="1173" d="M66 203l79 71q61 -86 171 -139t245 -53q170 0 269.5 78t99.5 213q0 139 -102.5 207.5t-270.5 68.5h-283v107h283q152 0 251 65.5t99 194.5q0 123 -100 193.5t-248 70.5q-229 0 -393 -174l-72 74q78 92 200 149t271 57q195 0 330 -97t135 -263q0 -96 -51 -170 t-112.5 -105.5t-129.5 -43.5q111 -12 212.5 -100.5t101.5 -239.5q0 -172 -133.5 -282t-356.5 -110q-168 0 -298 64.5t-197 163.5z" />
<glyph unicode="&#x418;" horiz-adv-x="1431" d="M170 0v1366h117v-1157l856 1157h119v-1366h-117v1174l-860 -1174h-115z" />
<glyph unicode="&#x419;" horiz-adv-x="1431" d="M170 0v1366h117v-1157l856 1157h119v-1366h-117v1174l-860 -1174h-115zM356 1630l60 51q111 -154 301 -153q188 0 301 153l57 -51q-133 -180 -358 -180q-223 0 -361 180z" />
<glyph unicode="&#x41a;" horiz-adv-x="1200" d="M170 0v1366h117v-748l659 748h150l-582 -651l637 -715h-150l-563 643l-151 -166v-477h-117z" />
<glyph unicode="&#x41b;" horiz-adv-x="1439" d="M72 -25v107q94 0 153.5 46t108.5 182t82 382l88 674h768v-1366h-119v1260h-545l-73 -578q-23 -180 -58 -308t-73.5 -205t-94 -121t-109.5 -58.5t-128 -14.5z" />
<glyph unicode="&#x41c;" horiz-adv-x="1617" d="M170 0v1366h174l465 -1126l463 1126h176v-1366h-119v1206l-498 -1206h-45l-499 1206v-1206h-117z" />
<glyph unicode="&#x41d;" horiz-adv-x="1439" d="M170 0v1366h117v-610h866v610h119v-1366h-119v649h-866v-649h-117z" />
<glyph unicode="&#x41e;" horiz-adv-x="1564" d="M119 682q0 305 183 506t480 201q295 0 479.5 -201t184.5 -506t-184.5 -506t-479.5 -201q-297 0 -480 201t-183 506zM242 682q0 -262 147 -431t393 -169q242 0 391.5 169t149.5 431q0 264 -148.5 432t-392.5 168q-246 0 -393 -168t-147 -432z" />
<glyph unicode="&#x41f;" horiz-adv-x="1439" d="M170 0v1366h1102v-1366h-119v1260h-866v-1260h-117z" />
<glyph unicode="&#x420;" horiz-adv-x="1169" d="M170 0v1366h512q190 0 301 -115.5t111 -283.5t-112 -284t-300 -116h-395v-567h-117zM287 674h383q135 0 218 82t83 211t-83 211t-218 82h-383v-586z" />
<glyph unicode="&#x421;" horiz-adv-x="1376" d="M119 682q0 311 198.5 509t493.5 198q303 0 498 -242l-99 -64q-66 90 -172 144.5t-227 54.5q-244 0 -406.5 -168t-162.5 -432q0 -262 162.5 -431t406.5 -169q121 0 227.5 54t171.5 145l99 -62q-197 -244 -498 -244q-295 0 -493.5 198t-198.5 509z" />
<glyph unicode="&#x422;" horiz-adv-x="1155" d="M72 1260v106h1011v-106h-446v-1260h-119v1260h-446z" />
<glyph unicode="&#x423;" horiz-adv-x="1265" d="M31 96l63 88q82 -102 191 -102q76 0 123 43t110 162l47 88l-534 991h135l467 -883l467 883h135l-614 -1135q-72 -133 -143.5 -194.5t-188.5 -61.5q-170 0 -258 121z" />
<glyph unicode="&#x424;" horiz-adv-x="1607" d="M119 682q0 229 170 382t456 167v135h117v-135q287 -14 457 -167t170 -382q0 -231 -170 -383t-457 -166v-133h-117v133q-287 14 -456.5 166t-169.5 383zM242 682q0 -186 135 -307t368 -135v884q-233 -14 -368 -135t-135 -307zM862 240q229 14 365.5 135t136.5 307 t-135 307t-367 135v-884z" />
<glyph unicode="&#x425;" horiz-adv-x="1320" d="M37 0l551 700l-520 666h149l442 -580l445 580h147l-518 -664l549 -702h-145l-478 616l-475 -616h-147z" />
<glyph unicode="&#x426;" horiz-adv-x="1468" d="M170 0v1366h117v-1260h866v1260h119v-1260h121v-358h-117v252h-1106z" />
<glyph unicode="&#x427;" horiz-adv-x="1218" d="M127 1016v350h117v-350q0 -166 91 -254t261 -88q168 0 336 43v649h117v-1366h-117v612q-176 -45 -344 -45q-225 0 -343 122t-118 327z" />
<glyph unicode="&#x428;" horiz-adv-x="1970" d="M170 0v1366h117v-1260h639v1260h118v-1260h639v1260h117v-1366h-1630z" />
<glyph unicode="&#x429;" horiz-adv-x="2015" d="M188 0v1366h119v-1260h637v1260h119v-1260h639v1260h117v-1260h123v-358h-117v252h-1637z" />
<glyph unicode="&#x42a;" horiz-adv-x="1517" d="M72 1260v106h565v-567h393q188 0 301 -116t113 -284t-112 -283.5t-302 -115.5h-512v1260h-446zM637 106h381q135 0 218 82t83 211t-83 211t-218 82h-381v-586z" />
<glyph unicode="&#x42b;" horiz-adv-x="1544" d="M170 0v1366h117v-567h395q188 0 300 -116t112 -284t-111 -283.5t-301 -115.5h-512zM287 106h383q135 0 218 82t83 211t-83 211t-218 82h-383v-586zM1257 0v1366h117v-1366h-117z" />
<glyph unicode="&#x42c;" horiz-adv-x="1169" d="M170 0v1366h117v-567h395q188 0 300 -116t112 -284t-111 -283.5t-301 -115.5h-512zM287 106h383q135 0 218 82t83 211t-83 211t-218 82h-383v-586z" />
<glyph unicode="&#x42d;" horiz-adv-x="1376" d="M66 219l98 62q68 -90 174 -144.5t227 -54.5q233 0 394 158.5t171 406.5h-765v107h763q-23 236 -181.5 382t-381.5 146q-121 0 -227.5 -54t-173.5 -145l-96 64q190 242 497 242q293 0 492.5 -199t199.5 -508t-199.5 -508t-492.5 -199q-299 0 -499 244z" />
<glyph unicode="&#x42e;" horiz-adv-x="1994" d="M170 0v1366h117v-610h264q23 276 203 454.5t458 178.5q295 0 479.5 -201t184.5 -506t-184.5 -506t-479.5 -201q-289 0 -471 190.5t-192 483.5h-262v-649h-117zM672 682q0 -262 148 -431t392 -169q242 0 391.5 169t149.5 431q0 264 -148.5 432t-392 168t-392 -168 t-148.5 -432z" />
<glyph unicode="&#x42f;" horiz-adv-x="1216" d="M104 0l396 573q-162 6 -270.5 110.5t-108.5 283.5q0 182 117.5 290.5t298.5 108.5h510v-1366h-119v565h-299l-383 -565h-142zM244 967q0 -129 84 -212t219 -83h381v588h-381q-135 0 -219 -82t-84 -211z" />
<glyph unicode="&#x430;" horiz-adv-x="1067" d="M113 305q0 154 103 241t243 87q209 0 336 -141v200q0 106 -76 167t-191 61q-182 0 -309 -146l-59 74q154 166 381 166q160 0 260 -80t100 -238v-696h-106v117q-129 -141 -336 -142q-137 0 -241.5 89.5t-104.5 240.5zM225 303.5q0 -106.5 75 -175.5t196 -69q195 0 299 136 v217q-106 137 -299 137q-121 0 -196 -69.5t-75 -176z" />
<glyph unicode="&#x431;" horiz-adv-x="1181" d="M111 541q0 352 128 517t402 199q164 27 225.5 51.5t61.5 57.5h100q0 -49 -29.5 -85t-91 -58.5t-110.5 -33.5t-131 -24q-162 -25 -258.5 -82t-134 -126.5t-62.5 -182.5q133 240 387 240q205 0 333 -148.5t128 -367.5q0 -223 -130 -373t-345 -150t-344 157t-129 409z M223 498q0 -176 97.5 -301t263.5 -125q168 0 265 125t97 301q0 172 -97 296t-265 124q-164 0 -262.5 -124t-98.5 -296z" />
<glyph unicode="&#x432;" horiz-adv-x="1107" d="M166 0v989h508q123 0 195.5 -68.5t72.5 -185.5q0 -84 -46 -144.5t-112 -80.5q74 -20 125.5 -90t51.5 -152q0 -125 -75 -196.5t-204 -71.5h-516zM272 96h387q88 0 138.5 48.5t50.5 131.5q0 76 -50 131.5t-139 55.5h-387v-367zM272 557h383q84 0 130 47t46 121 q0 78 -46 124t-130 46h-383v-338z" />
<glyph unicode="&#x433;" horiz-adv-x="870" d="M166 0v989h649v-94h-543v-895h-106z" />
<glyph unicode="&#x434;" horiz-adv-x="1132" d="M37 88q78 10 127 96t80 312l65 493h631v-893h119v-348h-107v252h-807v-252h-108v340zM197 96h637v799h-428l-56 -412q-43 -309 -153 -387z" />
<glyph unicode="&#x435;" horiz-adv-x="1161" d="M109 496q0 217 136 367.5t341 150.5q217 0 342 -150.5t125 -374.5v-28h-828q8 -168 112.5 -280.5t274.5 -112.5q197 0 324 137l55 -70q-154 -160 -387 -160q-217 0 -356 145.5t-139 375.5zM225 545h719q-2 143 -95 260t-265 117q-162 0 -257.5 -116t-101.5 -261z" />
<glyph unicode="&#x436;" horiz-adv-x="1423" d="M37 989h143l477 -467v467h109v-469l479 469h141l-460 -446l458 -543h-143l-393 471l-82 -78v-393h-109v395l-79 76l-396 -471h-143l459 543z" />
<glyph unicode="&#x437;" horiz-adv-x="1062" d="M70 139l55 70q137 -141 385 -141q147 0 237.5 54t90.5 146q0 188 -349 189h-229v90h229q141 0 235.5 50t94.5 144q0 80 -93 130.5t-234 50.5q-217 0 -342 -131l-62 65q158 158 399 158q195 0 320 -71t125 -193q0 -106 -85 -170t-185 -76q106 -8 198 -68.5t92 -173.5 q0 -127 -118.5 -207t-323.5 -80q-281 0 -440 164z" />
<glyph unicode="&#x438;" d="M166 0v989h106v-823l564 823h104v-989h-106v836l-566 -836h-102z" />
<glyph unicode="&#x439;" d="M166 0v989h106v-823l564 823h104v-989h-106v836l-566 -836h-102zM193 1288l59 51q111 -154 301 -153q188 0 301 153l57 -51q-133 -180 -358 -180q-223 0 -360 180z" />
<glyph unicode="&#x43a;" horiz-adv-x="1034" d="M166 0v989h106v-565l584 565h141l-460 -446l458 -543h-143l-395 471l-185 -174v-297h-106z" />
<glyph unicode="&#x43b;" d="M37 -25v93q76 0 126 98t81 330l65 493h631v-989h-106v895h-428l-56 -412q-37 -276 -110.5 -392t-202.5 -116z" />
<glyph unicode="&#x43c;" horiz-adv-x="1265" d="M166 0v989h143l324 -803l319 803h148v-989h-109v844l-338 -844h-39l-342 844v-844h-106z" />
<glyph unicode="&#x43d;" d="M166 0v989h106v-430h562v430h106v-989h-106v465h-562v-465h-106z" />
<glyph unicode="&#x43e;" horiz-adv-x="1169" d="M109 495.5q0 221.5 131 370t344 148.5q215 0 346 -148.5t131 -370t-131 -371t-346 -149.5q-213 0 -344 149.5t-131 371zM223 496q0 -174 97.5 -299t263.5 -125q168 0 265 123.5t97 300.5q0 174 -97 298t-265 124q-166 0 -263.5 -124t-97.5 -298z" />
<glyph unicode="&#x43f;" d="M166 0v989h774v-989h-106v895h-562v-895h-106z" />
<glyph unicode="&#x440;" horiz-adv-x="1161" d="M166 -377v1366h106v-155q55 80 146.5 130t197.5 50q199 0 321 -140.5t122 -377.5q0 -236 -122 -378.5t-321 -142.5q-213 0 -344 185v-537h-106zM272 252q45 -74 136.5 -127t189.5 -53q162 0 254 118.5t92 305.5q0 184 -92 303t-254 119q-100 0 -190.5 -51.5 t-135.5 -125.5v-489z" />
<glyph unicode="&#x441;" horiz-adv-x="1011" d="M109 495.5q0 221.5 133 370t348 148.5q217 0 350 -168l-74 -66q-100 137 -270 137.5t-271.5 -119.5t-101.5 -302.5t101.5 -303t271.5 -120.5q168 0 270 139l74 -66q-133 -170 -350 -170q-215 0 -348 149.5t-133 371z" />
<glyph unicode="&#x442;" horiz-adv-x="800" d="M55 895v94h690v-94h-292v-895h-107v895h-291z" />
<glyph unicode="&#x443;" horiz-adv-x="985" d="M14 989h119l361 -864l356 864h121l-512 -1206q-78 -184 -254 -184q-58 0 -105 14l19 98q37 -16 86 -16q100 0 149 121l78 176z" />
<glyph unicode="&#x444;" horiz-adv-x="1581" d="M119 493.5q0 235.5 96 378t252 142.5q166 0 270 -185v537h107v-532q43 80 115.5 130t154.5 50q156 0 252 -141.5t96 -377t-96 -378t-252 -142.5q-166 0 -270 185v-537h-107v535q-43 -80 -115.5 -131.5t-154.5 -51.5q-156 0 -252 141.5t-96 377zM227 493.5 q0 -186.5 70 -304t192 -117.5q76 0 144.5 51t103.5 127v487q-35 76 -103.5 128.5t-144.5 52.5q-123 0 -192.5 -119t-69.5 -305.5zM844 252q35 -76 103.5 -128t144.5 -52q123 0 192.5 118.5t69.5 305t-70 304.5t-192 118q-76 0 -144.5 -51.5t-103.5 -125.5v-489z" />
<glyph unicode="&#x445;" horiz-adv-x="980" d="M35 0l391 508l-369 481h127l308 -407l305 407h127l-369 -481l391 -508h-127l-327 436l-330 -436h-127z" />
<glyph unicode="&#x446;" horiz-adv-x="1132" d="M166 0v989h106v-893h562v893h106v-893h119v-348h-107v252h-786z" />
<glyph unicode="&#x447;" horiz-adv-x="1095" d="M156 678v311h106v-287q0 -150 64.5 -207t201.5 -57q174 0 295 68v483h107v-989h-107v418q-143 -74 -315 -74q-184 0 -268 77t-84 257z" />
<glyph unicode="&#x448;" horiz-adv-x="1591" d="M166 0v989h106v-893h469v893h107v-893h471v893h106v-989h-1259z" />
<glyph unicode="&#x449;" horiz-adv-x="1624" d="M166 0v989h106v-893h469v893h107v-893h471v893h106v-893h125v-348h-106v252h-1278z" />
<glyph unicode="&#x44a;" horiz-adv-x="1222" d="M55 895v94h398v-403h385q141 0 221 -84t80 -209t-80 -209t-221 -84h-492v895h-291zM453 96h376q94 0 145.5 54.5t51.5 142.5q0 90 -51.5 144.5t-145.5 54.5h-376v-396z" />
<glyph unicode="&#x44b;" horiz-adv-x="1400" d="M166 0v989h106v-403h385q141 0 221 -84t80 -209t-79.5 -209t-221.5 -84h-491zM272 96h377q94 0 145.5 54.5t51.5 142.5q0 90 -51.5 144.5t-145.5 54.5h-377v-396zM1126 0v989h109v-989h-109z" />
<glyph unicode="&#x44c;" horiz-adv-x="1042" d="M166 0v989h106v-403h385q141 0 221 -84t80 -209t-79.5 -209t-221.5 -84h-491zM272 96h377q94 0 145.5 54.5t51.5 142.5q0 90 -51.5 144.5t-145.5 54.5h-377v-396z" />
<glyph unicode="&#x44d;" horiz-adv-x="1011" d="M72 145l71 64q106 -141 273 -141q162 0 261 107.5t109 279.5h-534v96h534q-16 166 -114.5 268.5t-255.5 102.5q-168 0 -273 -140l-71 64q133 168 350 168q215 0 348 -148.5t133 -370t-133 -371t-348 -149.5q-217 0 -350 170z" />
<glyph unicode="&#x44e;" horiz-adv-x="1536" d="M166 0v989h106v-430h205q20 199 148.5 327t324.5 128q215 0 345 -148.5t130 -369.5q0 -223 -130 -372t-345 -149q-205 0 -335 139.5t-140 350.5h-203v-465h-106zM590 496q0 -176 97 -300t263 -124q168 0 265.5 123.5t97.5 300.5q0 174 -97.5 298t-265.5 124 q-166 0 -263 -124t-97 -298z" />
<glyph unicode="&#x44f;" horiz-adv-x="1099" d="M135 0l277 406q-121 8 -195 86.5t-74 203.5q0 127 81 210t220 83h492v-989h-109v403h-301l-264 -403h-127zM254 696q0 -90 51.5 -144t147.5 -54h374v397h-374q-94 0 -146.5 -54.5t-52.5 -144.5z" />
<glyph unicode="&#x451;" horiz-adv-x="1161" d="M109 496q0 217 136 367.5t341 150.5q217 0 342 -150.5t125 -374.5v-28h-828q8 -168 112.5 -280.5t274.5 -112.5q197 0 324 137l55 -70q-154 -160 -387 -160q-217 0 -356 145.5t-139 375.5zM225 545h719q-2 143 -95 260t-265 117q-162 0 -257.5 -116t-101.5 -261z M301 1231q0 31 22.5 53.5t53.5 22.5t53.5 -22.5t22.5 -53.5t-22.5 -53.5t-53.5 -22.5t-53.5 22.5t-22.5 53.5zM719 1231q0 31 22.5 53.5t53 22.5t53 -22.5t22.5 -53.5t-22.5 -53.5t-53 -22.5t-53 22.5t-22.5 53.5z" />
<glyph unicode="&#x452;" horiz-adv-x="1107" d="M20 1102v78h148v186h106v-186h332v-78h-332v-262q59 70 157.5 122t199.5 52q311 0 311 -318v-823q0 -135 -69.5 -204.5t-198.5 -69.5q-115 0 -203 75l47 84q68 -68 145.5 -67.5t125 45.5t47.5 137v801q0 135 -61.5 189.5t-178.5 54.5q-92 0 -182 -49.5t-140 -120.5v-748 h-106v1102h-148z" />
<glyph unicode="&#x453;" horiz-adv-x="870" d="M166 0v989h649v-94h-543v-895h-106zM379 1139l315 295h127l-352 -295h-90z" />
<glyph unicode="&#x454;" horiz-adv-x="1011" d="M109 495.5q0 221.5 133 370t348 148.5q217 0 350 -168l-72 -64q-102 139 -272 140q-156 0 -255 -102.5t-116 -268.5h535v-96h-537q12 -172 112.5 -279.5t260.5 -107.5q170 0 272 141l72 -64q-133 -170 -350 -170q-215 0 -348 149.5t-133 371z" />
<glyph unicode="&#x455;" horiz-adv-x="940" d="M80 131l63 80q51 -63 135 -104t185 -41q121 0 192.5 56t71.5 144q0 74 -64.5 118t-155.5 65.5t-183.5 47t-157 85t-64.5 157.5q0 117 95.5 196t257.5 79q223 0 354 -146l-59 -75q-96 131 -295 131q-113 0 -180.5 -51.5t-67.5 -129.5q0 -68 64.5 -106.5t155.5 -60t183 -48 t156.5 -92t64.5 -170.5q0 -127 -96 -209t-274 -82q-240 0 -381 156z" />
<glyph unicode="&#x456;" horiz-adv-x="438" d="M137 1227q0 33 24.5 56.5t57.5 23.5q35 0 58.5 -23.5t23.5 -56.5q0 -35 -23.5 -58.5t-58.5 -23.5q-33 0 -57.5 24.5t-24.5 57.5zM166 0v989h106v-989h-106z" />
<glyph unicode="&#x457;" horiz-adv-x="438" d="M-66 1231q0 31 23 53.5t53.5 22.5t53 -22.5t22.5 -53.5t-22.5 -53.5t-53 -22.5t-53.5 22.5t-23 53.5zM166 0v989h106v-989h-106zM352 1231q0 31 22.5 53.5t53.5 22.5t53.5 -22.5t22.5 -53.5t-22.5 -53.5t-53.5 -22.5t-53.5 22.5t-22.5 53.5z" />
<glyph unicode="&#x458;" horiz-adv-x="438" d="M-199 -326l47 84q63 -68 146 -67q78 0 125 45t47 137v1116h106v-1116q0 -135 -69.5 -204.5t-198.5 -69.5q-115 0 -203 75zM137 1227q0 33 24.5 56.5t57.5 23.5q35 0 58.5 -23.5t23.5 -56.5q0 -35 -23.5 -58.5t-58.5 -23.5q-33 0 -57.5 24.5t-24.5 57.5z" />
<glyph unicode="&#x459;" horiz-adv-x="1712" d="M37 -25v93q76 0 126 98t81 330l65 493h631v-403h385q141 0 221 -84t80 -209t-80 -209t-221 -84h-491v895h-428l-56 -412q-37 -276 -110.5 -392t-202.5 -116zM940 96h377q94 0 145 54.5t51 142.5q0 90 -50 144.5t-146 54.5h-377v-396z" />
<glyph unicode="&#x45a;" horiz-adv-x="1712" d="M166 0v989h106v-430h562v430h106v-430h401q135 0 210 -81t75 -199.5t-75.5 -198.5t-209.5 -80h-507v465h-562v-465h-106zM940 96h391q88 0 135 50.5t47 132.5q0 84 -46 135t-136 51h-391v-369z" />
<glyph unicode="&#x45b;" horiz-adv-x="1107" d="M20 1102v76h148v188h106v-188h332v-76h-332v-262q59 70 157.5 122t199.5 52q311 0 311 -318v-696h-106v674q0 135 -61.5 189.5t-178.5 54.5q-92 0 -182 -49.5t-140 -120.5v-748h-106v1102h-148z" />
<glyph unicode="&#x45c;" horiz-adv-x="1034" d="M166 0v989h106v-565l584 565h141l-460 -446l458 -543h-143l-395 471l-185 -174v-297h-106zM408 1139l315 295h127l-352 -295h-90z" />
<glyph unicode="&#x45e;" horiz-adv-x="985" d="M14 989h119l361 -864l356 864h121l-512 -1206q-78 -184 -254 -184q-58 0 -105 14l19 98q37 -16 86 -16q100 0 149 121l78 176zM133 1288l60 51q111 -154 301 -153q188 0 301 153l57 -51q-133 -180 -358 -180q-223 0 -361 180z" />
<glyph unicode="&#x45f;" d="M166 0v989h106v-893h562v893h106v-989h-334v-258h-106v258h-334z" />
<glyph unicode="&#x490;" horiz-adv-x="1110" d="M170 0v1366h748v254h118v-360h-749v-1260h-117z" />
<glyph unicode="&#x491;" horiz-adv-x="870" d="M166 0v989h541v258h108v-352h-543v-895h-106z" />
<glyph unicode="&#x2000;" horiz-adv-x="888" />
<glyph unicode="&#x2001;" horiz-adv-x="1776" />
<glyph unicode="&#x2002;" horiz-adv-x="888" />
<glyph unicode="&#x2003;" horiz-adv-x="1776" />
<glyph unicode="&#x2004;" horiz-adv-x="592" />
<glyph unicode="&#x2005;" horiz-adv-x="444" />
<glyph unicode="&#x2006;" horiz-adv-x="296" />
<glyph unicode="&#x2007;" horiz-adv-x="296" />
<glyph unicode="&#x2008;" horiz-adv-x="222" />
<glyph unicode="&#x2009;" horiz-adv-x="355" />
<glyph unicode="&#x200a;" horiz-adv-x="98" />
<glyph unicode="&#x2010;" horiz-adv-x="614" d="M61 446v99h492v-99h-492z" />
<glyph unicode="&#x2011;" horiz-adv-x="614" d="M61 446v99h492v-99h-492z" />
<glyph unicode="&#x2012;" horiz-adv-x="614" d="M61 446v99h492v-99h-492z" />
<glyph unicode="&#x2013;" horiz-adv-x="1214" d="M61 446v99h1092v-99h-1092z" />
<glyph unicode="&#x2014;" horiz-adv-x="1705" d="M61 446v99h1584v-99h-1584z" />
<glyph unicode="&#x2018;" horiz-adv-x="448" d="M104 1108q0 82 42 157.5t106 120.5l59 -49q-49 -33 -81.5 -87t-36.5 -103q0 4 20 4q37 0 60.5 -24.5t23.5 -61.5q0 -35 -25.5 -61.5t-62.5 -26.5q-43 0 -74 35t-31 96z" />
<glyph unicode="&#x2019;" horiz-adv-x="448" d="M119 1026q49 33 81.5 87t37.5 104q0 -4 -21 -5q-37 0 -60.5 25t-23.5 61q0 35 25.5 61.5t62.5 26.5q43 0 74 -35t31 -96q0 -82 -42 -158.5t-106 -119.5z" />
<glyph unicode="&#x201a;" horiz-adv-x="448" d="M119 -201q49 33 81.5 87.5t37.5 101.5q-14 -2 -21 -2q-37 0 -60.5 24.5t-23.5 61.5q0 35 25.5 61.5t62.5 26.5q43 0 74 -35t31 -96q0 -82 -42 -159t-106 -122z" />
<glyph unicode="&#x201c;" horiz-adv-x="737" d="M123 1108q0 82 41 157.5t104 120.5l62 -49q-49 -35 -84 -88t-37 -102q4 4 22 4q35 0 58.5 -25.5t23.5 -60.5q0 -37 -25.5 -62.5t-62.5 -25.5q-43 0 -72.5 35t-29.5 96zM414 1108q0 82 41 157.5t104 120.5l62 -49q-49 -35 -84 -88t-37 -102q4 4 22 4q35 0 58.5 -25.5 t23.5 -60.5q0 -37 -25.5 -62.5t-62.5 -25.5q-43 0 -72.5 35t-29.5 96z" />
<glyph unicode="&#x201d;" horiz-adv-x="737" d="M119 1026q49 33 81.5 87t37.5 104q0 -4 -21 -5q-37 0 -60.5 25t-23.5 61q0 35 25.5 61.5t62.5 26.5q43 0 74 -35t31 -96q0 -82 -42 -158.5t-106 -119.5zM408 1026q49 35 83.5 88t36.5 103q-4 -4 -22 -5q-35 0 -58.5 25t-23.5 61.5t25.5 62t62.5 25.5q43 0 72.5 -35 t29.5 -96q0 -84 -41 -159.5t-104 -118.5z" />
<glyph unicode="&#x201e;" horiz-adv-x="739" d="M119 -201q49 33 81.5 87.5t37.5 101.5q-14 -2 -21 -2q-37 0 -60.5 24.5t-23.5 61.5q0 35 25.5 61.5t62.5 26.5q43 0 74 -35t31 -96q0 -82 -42 -159t-106 -122zM408 -201q49 33 82.5 87.5t37.5 101.5h-8q-10 -2 -14 -2q-35 0 -58.5 24.5t-23.5 61.5t25.5 62.5t62.5 25.5 q43 0 72.5 -35t29.5 -96q0 -82 -41 -159t-104 -122z" />
<glyph unicode="&#x2022;" horiz-adv-x="733" d="M158 496q0 88 61.5 149.5t149.5 61.5t149.5 -61.5t61.5 -149.5q0 -86 -61.5 -147.5t-149.5 -61.5t-149.5 61.5t-61.5 147.5z" />
<glyph unicode="&#x2026;" horiz-adv-x="1345" d="M133 72q0 35 26.5 61.5t63.5 26.5t63.5 -26.5t26.5 -61.5q0 -37 -26.5 -63.5t-63.5 -26.5t-63.5 26.5t-26.5 63.5zM582 72q0 35 26.5 61.5t63.5 26.5t63.5 -26.5t26.5 -61.5q0 -37 -26.5 -63.5t-63.5 -26.5t-63.5 26.5t-26.5 63.5zM1032 72q0 35 25.5 61.5t62.5 26.5 t63.5 -26.5t26.5 -61.5q0 -37 -26.5 -63.5t-63.5 -26.5t-62.5 26.5t-25.5 63.5z" />
<glyph unicode="&#x202f;" horiz-adv-x="355" />
<glyph unicode="&#x2039;" horiz-adv-x="567" d="M61 498l328 362h117l-328 -362l328 -369h-117z" />
<glyph unicode="&#x203a;" horiz-adv-x="567" d="M61 129l328 369l-328 362h117l328 -362l-328 -369h-117z" />
<glyph unicode="&#x205f;" horiz-adv-x="444" />
<glyph unicode="&#x20ac;" horiz-adv-x="1413" d="M72 496v84h96q-6 49 -6 102q0 55 6 106h-96v84h112q57 233 240.5 375t429.5 142q303 0 498 -242l-99 -64q-66 90 -172 144.5t-227 54.5q-195 0 -343.5 -111.5t-201.5 -298.5h668v-84h-686q-6 -51 -6 -106q0 -53 6 -102h686v-84h-668q53 -188 200.5 -301t344.5 -113 q121 0 227.5 54t171.5 145l99 -62q-197 -244 -498 -244q-248 0 -431 141.5t-241 379.5h-110z" />
<glyph unicode="&#x2122;" horiz-adv-x="929" d="M35 1313v53h311v-53h-127v-398h-57v398h-127zM420 915v451h88l131 -328l131 328h88v-451h-57v373l-154 -373h-16l-154 373v-373h-57z" />
<glyph unicode="&#x25fc;" horiz-adv-x="993" d="M0 0v993h993v-993h-993z" />
</font>
</defs>
</svg>
