<?xml version="1.0" standalone="no"?> <!DOCTYPE svg PUBLIC "-//W3C//DTD SVG 1.0//EN" "http://www.w3.org/TR/2001/REC-SVG-20010904/DTD/svg10.dtd" > <svg xmlns="http://www.w3.org/2000/svg" width="100%" height="100%">
<defs >
<font id="osn45c" horiz-adv-x="824" ><font-face
    font-family="OfficinaSansC"
    units-per-em="2048"
    panose-1="2 0 5 3 0 0 0 0 0 0"
    ascent="1804"
    descent="-512"
    alphabetic="0" />
<missing-glyph horiz-adv-x="233" />
<glyph unicode=" " glyph-name="space" horiz-adv-x="477" />
<glyph unicode="!" glyph-name="exclam" horiz-adv-x="681" d="M373 543H307Q295 543 290 547T284 556T283 569L233 1378Q232 1389 238 1395T248 1402T260 1403H416Q424 1403 428 1402T438 1395T442 1378L397 569Q397 562 397 560T395 552T388 545T373 543ZM485
174T485 115T443 14T342 -29T242 13T199 115T241 216T342 258T442 216Z" />
<glyph unicode="&quot;" glyph-name="quotedbl" horiz-adv-x="833" d="M215 969L182 1464Q180 1483 207 1483H326Q352 1483 350 1464L317 969Q315 942 293 942H240Q217 942 215 969ZM518 969L485 1464Q483 1483 510 1483H629Q655 1483 653 1464L621 969Q619 942
596 942H543Q520 942 518 969Z" />
<glyph unicode="#" glyph-name="numbersign" horiz-adv-x="1024" d="M627 362L670 772H420L377 362H627ZM743 229L707 -135Q705 -151 701 -157T682 -164H602Q578 -164 575 -148Q574 -143 575 -135L612 229H362L326 -135Q324 -151 320 -157T301 -164H221Q199 -164
195 -150Q194 -144 195 -135L231 229H100Q84 229 84 246V346Q84 362 100 362H246L289 772H145Q129 772 129 788V889Q129 905 145 905H301L344 1317Q345 1325 346 1330T347 1336T348 1339Q352 1346 369 1346H461Q470 1346 475 1341Q477 1338 477 1334T476 1325T475
1317L432 905H682L725 1317Q726 1325 727 1330T728 1336T729 1339Q732 1346 750 1346H842Q851 1346 856 1341Q858 1338 858 1334T857 1325T856 1317L813 905H934Q950 905 950 889V788Q950 772 934 772H801L758 362H889Q905 362 905 346V246Q905 229 889 229H743Z"
/>
<glyph unicode="$" glyph-name="dollar" horiz-adv-x="1024" d="M584 1208V743L618 725Q661 703 691 684T764 630T833 558T879 464T899 344Q899 208 815 106T584 -20V-156Q584 -180 559 -180H498Q473 -180 473 -156V-29Q323 -23 197 31Q128 58 125 82V88Q125 90
127 96T129 104L164 193Q167 203 173 204Q176 205 180 205H182Q186 205 189 203T200 197T215 188Q353 116 473 109V623L434 645Q328 706 287 740Q158 846 158 1004Q158 1138 246 1233T473 1341V1462Q473 1487 498 1487H559Q584 1487 584 1462V1346Q727 1338 842
1274Q872 1258 862 1233L825 1143Q816 1134 811 1133H805Q796 1136 774 1147Q772 1148 756 1156T731 1168T703 1180T668 1192T629 1201T584 1208ZM473 786V1204Q408 1194 367 1148T326 1018Q326 940 360 890T461 795L473 786ZM584 580V117Q652 134 691 189T731
322Q731 409 688 475T594 573L584 580Z" />
<glyph unicode="%" glyph-name="percent" horiz-adv-x="1554" d="M625 1014Q625 845 551 746T346 647Q319 647 292 651T225 676T154 729T102 828T80 983Q80 1149 154 1247T360 1346Q475 1346 550 1264T625 1014ZM346 758Q489 758 489 1001Q489 1126 453 1180T358
1235Q297 1235 256 1180T215 989Q215 758 346 758ZM1477 338Q1477 169 1403 70T1198 -29Q1171 -29 1144 -25T1077 0T1006 53T954 152T932 307Q932 473 1006 571T1212 670Q1327 670 1402 588T1477 338ZM1198 82Q1341 82 1341 326Q1341 451 1305 505T1210 559Q1149
559 1108 504T1067 313Q1067 82 1198 82ZM928 1346H1014Q1050 1346 1036 1311L627 -8Q621 -29 598 -29H512Q489 -29 486 -20T489 4L897 1325Q900 1333 901 1335T909 1342T928 1346Z" />
<glyph unicode="&amp;" glyph-name="ampersand" horiz-adv-x="1249" d="M1028 629H1128Q1153 629 1153 604V592Q1153 498 1120 398T1034 233L1163 84Q1176 71 1176 63Q1176 50 1163 43L1085 -20Q1084 -21 1081 -23T1074 -27T1067 -29H1061Q1044 -29 1032 -14L920
119Q862 77 830 56T751 12T653 -20T539 -29Q351 -29 234 72T117 338Q117 482 201 586Q212 600 227 614T254 640T286 666T317 689T353 713T387 737Q336 785 270 899Q211 1004 211 1102Q211 1161 231 1217T291 1322T402 1402T565 1432Q720 1432 801 1348T883 1135Q883
994 784 879Q732 820 604 731L942 340Q1004 448 1004 578V604Q1004 629 1028 629ZM522 819Q541 830 576 858T629 905Q727 1003 727 1114Q727 1204 677 1254T553 1305Q478 1305 423 1254T367 1118Q367 1024 446 913Q492 849 522 819ZM836 219L469 651Q448 639 419
613T373 569Q285 474 285 352Q285 306 300 264T347 187T431 130T555 109Q713 109 836 219Z" />
<glyph unicode="&apos;" glyph-name="quotesingle" horiz-adv-x="342" d="M254 1464L223 969Q220 942 205 942H137Q122 942 119 969L86 1464Q85 1472 89 1476T97 1482T106 1483H233Q256 1483 254 1464Z" />
<glyph unicode="(" glyph-name="parenleft" horiz-adv-x="757" d="M584 1477L637 1444Q651 1435 651 1421Q651 1411 631 1386Q560 1303 502 1184Q416 1012 377 850T338 502T377 154T502 -180Q561 -301 631 -383Q651 -408 651 -418Q651 -431 637 -440L584 -473Q575
-479 565 -479Q556 -479 524 -451Q468 -397 401 -287Q354 -209 318 -136T246 37T190 255T170 502Q170 718 232 922T401 1292Q477 1407 524 1454Q553 1483 565 1483Q575 1483 584 1477Z" />
<glyph unicode=")" glyph-name="parenright" horiz-adv-x="757" d="M174 -473L121 -440Q106 -430 106 -418Q106 -409 127 -383Q197 -301 256 -180Q342 -8 381 154T420 502T381 850T256 1184Q198 1303 127 1386Q106 1412 106 1421Q106 1434 121 1444L174 1477Q183
1483 193 1483Q196 1483 198 1482T205 1479T211 1474T221 1465T233 1454Q289 1400 356 1290Q403 1212 439 1139T511 966T568 748T588 502Q588 287 525 82T356 -289Q280 -404 233 -451Q205 -479 193 -479Q183 -479 174 -473Z" />
<glyph unicode="*" glyph-name="asterisk" horiz-adv-x="1024" d="M432 1040L190 1100Q176 1104 176 1114Q176 1120 180 1128L207 1212Q214 1235 231 1229L461 1135L442 1384Q442 1403 463 1403H561Q582 1403 582 1384L563 1135L793 1229Q810 1235 817 1212L844
1128Q848 1120 848 1114Q848 1104 834 1100L592 1040L754 850Q767 835 743 819L674 768Q661 760 657 760T643 770L512 981L381 770Q371 760 367 760T350 768L281 819Q257 835 270 850L432 1040Z" />
<glyph unicode="+" glyph-name="plus" horiz-adv-x="1024" d="M584 594H952Q977 594 977 569V471Q977 446 952 446H584V78Q584 53 559 53H461Q436 53 436 78V446H70Q45 446 45 471V569Q45 594 70 594H436V958Q436 983 461 983H559Q584 983 584 958V594Z" />
<glyph unicode="," glyph-name="comma" horiz-adv-x="378" d="M150 258H319Q342 258 342 244Q342 239 334 223L98 -209Q89 -223 86 -225Q84 -227 78 -227Q73 -227 61 -223L8 -205Q-6 -202 -6 -190Q-6 -184 -2 -172L119 236Q122 243 124 246T132 254T150 258Z" />
<glyph unicode="-" glyph-name="hyphen" horiz-adv-x="720" d="M104 463V567Q104 592 129 592H592Q616 592 616 567V463Q616 438 592 438H129Q104 438 104 463Z" />
<glyph unicode="." glyph-name="period" horiz-adv-x="606" d="M446 174T446 115T404 14T303 -29T203 13T160 115T202 216T303 258T404 216Z" />
<glyph unicode="../../default.htm" glyph-name="slash" horiz-adv-x="907" d="M774 1483H856Q881 1483 881 1466Q881 1464 872 1446L86 -410Q77 -430 53 -430H-27Q-64 -430 -51 -403L739 1460Q748 1483 774 1483Z" />
<glyph unicode="0" glyph-name="zero" horiz-adv-x="1024" d="M96 524T96 657T114 899T161 1078T230 1200T307 1279T388 1322T458 1342T512 1346T566 1343T636 1323T716 1280T794 1201T862 1078T909 899T928 657T910 416T863 239T795 117T717 38T637 -5T567 -25T512
-29T458 -25T387 -5T307 37T230 116T161 238T115 416ZM264 657Q264 115 512 115T760 657Q760 1202 512 1202T264 657Z" />
<glyph unicode="1" glyph-name="one" horiz-adv-x="1024" d="M870 109V25Q870 14 866 9T858 2T846 0H297Q272 0 272 25V109Q272 116 273 120T280 129T297 133H506V1135L223 971Q209 963 201 963T188 973L158 1030Q152 1040 152 1044Q152 1052 166 1061L532 1317H637Q662
1317 662 1292V133H846Q857 133 862 129T869 121T870 109Z" />
<glyph unicode="2" glyph-name="two" horiz-adv-x="1024" d="M881 119V25Q881 0 856 0H166Q141 0 141 25V43Q141 139 159 222T205 365T273 478T349 566T430 635Q453 653 557 725Q592 748 612 764T660 812T701 886T715 983Q715 1084 662 1143T524 1202Q443 1202
381 1151Q334 1110 299 1028Q298 1026 296 1020T292 1012T289 1004T286 996T281 990T277 985T272 982T266 980T258 981L162 1010Q145 1013 145 1028Q145 1052 174 1124Q217 1222 312 1284T535 1346Q692 1346 787 1244T883 975Q883 931 875 892T856 823T823 762T785
713T737 669T689 631T637 594Q567 545 518 504Q431 432 384 347T322 143H856Q872 143 876 137T881 119Z" />
<glyph unicode="3" glyph-name="three" horiz-adv-x="1024" d="M215 1083L147 1141Q135 1153 135 1159Q135 1164 152 1188Q200 1255 291 1300T483 1346Q627 1346 729 1256T831 1006Q831 795 621 711Q670 699 713 675T795 611T855 510T877 375Q877 191 758 81T442
-29Q275 -29 143 29Q142 29 141 30Q100 50 109 74L152 170Q156 182 168 182Q171 182 215 162Q250 143 311 129T432 115Q569 115 639 186T709 373Q709 625 412 625H338Q322 625 318 631T313 649V737Q313 762 338 762H412Q540 762 608 831T676 1006Q676 1049 663
1083T630 1140T582 1176T529 1196T477 1202Q418 1202 362 1173T268 1106Q266 1104 262 1099T254 1091T247 1085T238 1079T229 1077Q224 1077 215 1083Z" />
<glyph unicode="4" glyph-name="four" horiz-adv-x="1024" d="M768 291V0Q768 -11 766 -17T760 -26T753 -28T745 -29H637Q612 -29 612 -4V291H88Q63 291 63 315V434L594 1317L602 1329Q611 1344 619 1345T639 1343L735 1327Q760 1321 760 1309Q760 1302 752 1290L225
424H612L639 754Q640 770 646 775T666 780H743Q754 780 759 776T766 768T768 756V424H936Q961 424 961 399V315Q961 304 957 298T936 291H768Z" />
<glyph unicode="5" glyph-name="five" horiz-adv-x="1024" d="M346 1174L301 758L328 776Q426 846 547 846Q705 846 800 732T895 449Q895 325 849 225T731 66Q607 -29 399 -29Q294 -29 182 4Q162 10 153 17T145 32T147 47L170 139Q170 141 171 144T177 150T188
154L225 143Q229 142 244 138T265 132T286 127T311 123T337 119T369 116T403 115Q467 115 519 129T604 164T661 216T698 275T717 338T725 394T727 440Q727 510 710 561T670 639T614 680T561 699T518 702Q423 702 338 639Q334 636 276 586Q258 570 246 575L170 602Q157
607 154 610Q150 616 150 635L213 1290Q214 1302 215 1306T222 1314T238 1317H778Q803 1317 803 1292V1196Q803 1188 802 1185T796 1178T778 1174H346Z" />
<glyph unicode="6" glyph-name="six" horiz-adv-x="1024" d="M858 1280L827 1202Q821 1186 807 1186Q799 1186 793 1188Q726 1208 674 1208Q618 1208 562 1184T463 1122Q427 1090 398 1049T354 976T324 896T307 829T295 768L291 748L295 743Q331 814 402 857T559
901Q717 901 810 773T903 446Q903 228 790 100T506 -29Q425 -29 359 -1T240 88T157 258T127 516Q127 660 154 811T242 1075Q281 1150 336 1204T438 1285T540 1326T622 1343T676 1346Q754 1346 827 1321Q868 1306 858 1280ZM508 115Q610 115 672 200T735 438Q735
600 672 679T520 758Q490 758 463 751T403 723T349 666T311 570T295 428Q295 272 352 194T508 115Z" />
<glyph unicode="7" glyph-name="seven" horiz-adv-x="1024" d="M889 1241L416 0Q411 -20 393 -18L272 0Q255 0 250 8Q245 13 254 35L696 1174H164Q148 1174 144 1180T139 1198V1292Q139 1317 164 1317H864Q889 1317 889 1292V1241Z" />
<glyph unicode="8" glyph-name="eight" horiz-adv-x="1032" d="M373 700Q338 715 305 737T232 798T166 898T141 1034Q141 1167 239 1256T516 1346T792 1257T891 1034Q891 960 866 899T801 798T727 737T659 700Q793 656 871 559T950 342Q950 270 922 205T840 87T703
3T516 -29T329 2T192 86T111 204T82 342Q82 461 160 558T373 700ZM516 764L524 768Q599 805 646 854T709 942T725 1022Q725 1100 667 1154T516 1208T365 1154T307 1022Q307 982 322 943T385 854T508 768L516 764ZM516 618L498 610Q459 593 434 581T370 542T308
489T268 421T250 332Q250 293 265 256T310 184T393 130T516 109T638 129T722 184T767 255T782 332Q782 379 765 420T725 489T664 542T600 580T535 610L516 618Z" />
<glyph unicode="9" glyph-name="nine" horiz-adv-x="1024" d="M193 33L201 115Q201 133 219 133Q229 133 256 125Q312 109 369 109Q530 109 623 233Q641 256 656 285T680 336T699 396T712 448T724 503T733 549L737 569L733 573Q697 503 626 460T469 416Q311 416
218 543T125 870Q125 1087 239 1216T526 1346Q589 1346 643 1330T745 1274T828 1173T881 1017T901 803Q901 638 867 459T752 164Q701 91 631 46T502 -14T383 -29Q326 -29 223 -6Q221 -5 217 -4T211 -3T206 -1T201 2T198 5T195 9T193 15T192 23T193 33ZM520 1202Q418
1202 356 1117T293 879Q293 716 355 637T508 557Q547 557 581 570T652 616T711 719T733 891Q733 1046 676 1124T520 1202Z" />
<glyph unicode=":" glyph-name="colon" horiz-adv-x="606" d="M446 174T446 115T404 14T303 -29T203 13T160 115T202 216T303 258T404 216ZM446 840Q446 781 404 739T303 696T203 738T160 840Q160 898 202 940T303 983T404 941T446 840Z" />
<glyph unicode=";" glyph-name="semicolon" horiz-adv-x="636" d="M477 840Q477 781 436 739T334 696Q276 696 233 739T190 840T232 940T334 983Q392 983 434 941T477 840ZM262 233H432Q455 233 455 219Q455 217 446 199L211 -233Q202 -249 199 -250Q197 -252
190 -252Q186 -252 174 -248L121 -229Q106 -225 106 -215Q106 -212 111 -197L231 211Q234 218 236 221T244 229T262 233Z" />
<glyph unicode="&lt;" glyph-name="less" horiz-adv-x="1024" d="M45 471V567Q45 591 68 600L895 899Q907 905 920 905Q932 905 938 885L971 791Q975 775 975 774Q975 761 956 756L297 520V516L956 283Q975 277 975 262Q975 261 975 260T973 255T971 248L938 154Q935
147 935 146T932 140T927 134T920 133Q913 133 895 139L68 438Q45 447 45 471Z" />
<glyph unicode="=" glyph-name="equal" horiz-adv-x="1024" d="M977 709V610Q977 586 952 586H70Q45 586 45 610V709Q45 716 46 720T53 729T70 733H952Q968 733 972 727T977 709ZM977 428V330Q977 305 952 305H70Q45 305 45 330V428Q45 453 70 453H952Q977 453 977 428Z" />
<glyph unicode="&gt;" glyph-name="greater" horiz-adv-x="1024" d="M979 567V471Q979 447 956 438L129 139Q111 133 104 133Q100 133 97 134T92 139T90 145T86 154L53 248Q52 251 51 254T50 259T49 262Q49 277 68 283L727 516V520L68 756Q49 761 49 774Q49 775
53 791L86 885Q92 905 104 905Q117 905 129 899L956 600Q979 591 979 567Z" />
<glyph unicode="?" glyph-name="question" horiz-adv-x="872" d="M432 756V567Q432 556 428 551T420 544T408 543H317Q306 543 301 547T294 555T293 567V807Q293 841 300 849T340 866Q375 875 401 884T462 913T521 956T561 1018T578 1102Q578 1193 524 1243T377
1294Q317 1294 254 1276T152 1239Q134 1233 131 1233Q116 1233 113 1247L82 1325Q78 1337 78 1343Q78 1353 121 1374Q175 1400 248 1416T387 1432Q567 1432 656 1341T745 1108Q745 1064 737 1024T708 941T652 864T562 801T432 756ZM510 174T510 115T468 14T367
-29Q308 -29 266 13T223 115Q223 173 265 215T367 258T468 216Z" />
<glyph unicode="@" glyph-name="at" horiz-adv-x="1933" d="M1221 860H1319Q1329 860 1330 853T1329 838L1229 369Q1223 339 1223 334V315Q1224 293 1227 279T1238 247T1263 222T1307 213Q1363 213 1423 250T1537 352T1624 520T1659 741Q1659 966 1516 1098T1120
1231Q936 1231 778 1162T511 976T341 703T279 375Q279 240 317 129T431 -66T632 -196T918 -242Q1210 -242 1501 -106Q1512 -101 1521 -97T1534 -90T1544 -85T1554 -82H1563Q1572 -84 1577 -98L1602 -158Q1607 -171 1607 -181T1582 -206T1503 -244Q1217 -360 930
-360Q691 -360 514 -277T237 -28T137 369Q137 573 214 755T421 1067T733 1274T1114 1350Q1419 1350 1605 1188T1792 745Q1792 580 1723 431T1536 191T1286 100Q1240 100 1206 115T1155 151T1128 201T1116 248T1114 285H1110Q988 102 829 102Q750 102 702 161T653
336Q653 450 690 571T791 766Q892 881 1030 881Q1120 881 1186 799L1206 848Q1211 860 1221 860ZM1122 524L1157 692Q1087 762 1020 762Q913 762 852 598Q801 449 801 342Q801 229 874 229Q903 229 937 246T1008 297T1076 390T1122 524Z" />
<glyph unicode="A" glyph-name="A" horiz-adv-x="1134" d="M350 418L246 25Q246 23 245 20T244 16T242 11T240 7T235 5T229 2T221 1T209 0H76Q67 0 63 1T55 7T57 25L473 1380Q477 1392 483 1397T492 1402T504 1403H625Q633 1403 636 1403T645 1397T655 1380L1073
25Q1078 9 1069 2Q1065 0 1049 0H913Q912 0 911 0Q906 0 904 0T897 3T890 10T885 23L770 418H350ZM731 561L608 1014Q577 1128 561 1208H557Q543 1111 514 1014L389 561H731Z" />
<glyph unicode="B" glyph-name="B" horiz-adv-x="1118" d="M219 1403H539Q579 1403 609 1402T684 1393T762 1372T832 1334T892 1275T930 1188T946 1069Q946 843 743 735Q793 723 836 698T916 633T974 532T995 393Q995 285 956 205T860 78Q802 30 724 15T502 0H219Q195
0 195 25V1378Q195 1403 219 1403ZM362 784H492Q516 784 535 785T583 792T635 808T683 839T724 886T751 955T762 1051Q762 1108 747 1148T711 1210T657 1243T597 1257T535 1260H362V784ZM362 143H545Q568 143 589 145T644 155T705 179T757 221T796 290T811 389Q811
459 789 510T736 586T662 626T592 644T535 647H362V143Z" />
<glyph unicode="C" glyph-name="C" horiz-adv-x="956" d="M885 1255L829 1184Q819 1174 815 1174Q807 1174 778 1200Q670 1294 563 1294Q519 1294 482 1280T418 1246T371 1191T337 1126T315 1049T301 972T294 893T291 824T291 762Q291 685 294 621T307 476T337
335T389 221T469 138T582 109Q672 109 791 203Q821 227 829 227Q841 227 846 217L897 152Q905 144 905 129Q905 111 879 90Q820 36 739 4T573 -29Q525 -29 481 -21T389 9T301 67T224 161T162 294T121 477T106 715Q106 759 107 797T114 893T127 998T153 1103T192
1205T248 1294T325 1367T426 1414T553 1432Q635 1432 720 1401T864 1313Q872 1307 881 1294T891 1270Q891 1261 885 1255Z" />
<glyph unicode="D" glyph-name="D" horiz-adv-x="1138" d="M223 1403H481Q715 1403 831 1317Q1039 1164 1032 694Q1030 555 1014 447T950 252Q915 186 869 139T777 65T673 24T567 4T459 0H223Q216 0 212 1T203 8T199 25V1378Q199 1403 223 1403ZM367 143H494Q714
143 795 332Q846 449 848 707Q853 1068 733 1182Q695 1217 644 1235T559 1257T479 1260H367V143Z" />
<glyph unicode="E" glyph-name="E" horiz-adv-x="989" d="M879 119V25Q879 0 854 0H219Q195 0 195 25V1378Q195 1403 219 1403H862Q875 1403 880 1397T883 1382L848 1278Q844 1260 821 1260H362V805H766Q791 805 791 780V686Q791 675 787 669T766 662H362V143H854Q870
143 874 137T879 119Z" />
<glyph unicode="F" glyph-name="F" horiz-adv-x="872" d="M362 662V25Q362 0 338 0H219Q195 0 195 25V1378Q195 1403 219 1403H856Q889 1403 881 1378L850 1284Q843 1260 817 1260H362V805H766Q791 805 791 780V686Q791 675 787 669T766 662H362Z" />
<glyph unicode="G" glyph-name="G" horiz-adv-x="1099" d="M958 686V100Q958 76 952 66T930 47Q863 7 773 -11T614 -29Q537 -29 471 -11T357 37T270 112T206 203T161 308T132 416T115 524T108 624T106 711Q106 769 109 822T124 950T157 1089T217 1218T308 1329T439
1403T616 1432Q790 1432 918 1335Q942 1317 942 1303Q942 1298 936 1286L895 1210Q894 1209 892 1205T889 1200T885 1196T877 1194Q868 1194 852 1206Q726 1294 612 1294Q552 1294 504 1275T422 1224T365 1145T326 1050T304 942T294 833T291 727Q291 618 302 518T347
317T434 172Q468 142 519 126T621 109Q703 109 791 147V578H627Q602 578 602 602V686Q602 711 627 711H934Q958 711 958 686Z" />
<glyph unicode="H" glyph-name="H" horiz-adv-x="1251" d="M889 657H362V25Q362 0 338 0H219Q195 0 195 25V1378Q195 1403 219 1403H338Q362 1403 362 1378V801H889V1378Q889 1403 913 1403H1032Q1057 1403 1057 1378V25Q1057 0 1032 0H913Q906 0 902 1T893 8T889
25V657Z" />
<glyph unicode="I" glyph-name="I" horiz-adv-x="765" d="M467 133H653Q664 133 669 129T676 121T678 109V25Q678 0 653 0H113Q88 0 88 25V109Q88 133 113 133H299V1270H113Q102 1270 97 1274T90 1282T88 1294V1378Q88 1403 113 1403H653Q678 1403 678 1378V1294Q678
1287 677 1283T670 1274T653 1270H467V133Z" />
<glyph unicode="J" glyph-name="J" horiz-adv-x="923" d="M752 1378V346Q752 174 664 78Q565 -29 375 -29Q193 -29 100 82Q14 186 14 344V377Q14 401 39 401H145Q156 401 161 397T168 389T170 377V358Q170 109 385 109Q485 109 534 171T584 342V1260H225Q214 1260
209 1264T202 1272T201 1284V1378Q201 1403 225 1403H727Q752 1403 752 1378Z" />
<glyph unicode="K" glyph-name="K" horiz-adv-x="1060" d="M881 -10L367 668H362V25Q362 0 338 0H219Q195 0 195 25V1378Q195 1403 219 1403H338Q362 1403 362 1378V707H367L891 1417Q901 1432 911 1432Q916 1432 930 1423L1010 1366Q1011 1365 1014 1363T1020
1358T1022 1352T1012 1333L532 696L1026 76Q1032 66 1028 57T1018 43L928 -18Q917 -29 903 -29Q899 -29 896 -27T892 -24T886 -17T881 -10Z" />
<glyph unicode="L" glyph-name="L" horiz-adv-x="909" d="M358 143H879Q893 143 899 137Q902 134 902 131T903 125T901 119T899 113L866 23Q858 0 834 0H215Q190 0 190 25V1378Q190 1403 215 1403H334Q358 1403 358 1378V143Z" />
<glyph unicode="M" glyph-name="M" horiz-adv-x="1366" d="M678 549H682Q688 609 709 676L952 1382Q958 1396 962 1399T975 1403H1108Q1125 1403 1129 1397T1133 1378L1212 25Q1212 0 1188 0H1069Q1044 0 1044 25L1012 1077Q1010 1116 1014 1184H1010Q999 1103
985 1063L737 350Q734 342 732 337T725 331T720 328T712 328H707H645Q644 328 642 328Q621 327 614 350L377 1063Q368 1091 352 1184H348Q352 1126 350 1077L319 25Q319 0 295 0H176Q152 0 152 25L229 1378Q229 1386 230 1390T236 1398T254 1403H387Q390 1403 393
1403T397 1402T401 1400T404 1397T406 1394T407 1391T409 1387T410 1382L651 676Q672 609 678 549Z" />
<glyph unicode="N" glyph-name="N" horiz-adv-x="1206" d="M1022 1378V25Q1022 0 997 0H883Q858 0 850 20L379 1032Q355 1082 326 1206H319Q340 1086 340 1024V25Q340 0 315 0H209Q184 0 184 25V1378Q184 1403 209 1403H348Q371 1403 379 1384L827 438Q831 430
834 422T841 405T848 388T854 369T859 351T864 331T869 311T875 288T881 264H887Q866 384 866 446V1378Q866 1403 891 1403H997Q1022 1403 1022 1378Z" />
<glyph unicode="O" glyph-name="O" horiz-adv-x="1138" d="M569 -29Q524 -29 483 -22T393 6T306 61T228 151T164 282T122 464T106 702Q106 740 107 771T112 860T125 965T149 1073T188 1182T247 1278T327 1359T433 1411T569 1432Q613 1432 653 1425T741 1397T829
1343T908 1252T973 1121T1016 940T1032 702T1016 464T973 282T908 151T829 61T741 6T653 -22T569 -29ZM569 109Q627 109 672 132T747 186T796 273T827 371T842 482T847 585T848 680Q848 695 848 702Q848 771 847 822T839 939T821 1051T788 1147T738 1225T666 1275T569
1294Q511 1294 466 1271T392 1216T343 1127T313 1028T298 917T292 814T291 719Q291 707 291 702Q291 694 291 679Q291 632 291 606T293 528T300 443T314 361T337 281T372 214T421 158T486 123T569 109Z" />
<glyph unicode="P" glyph-name="P" horiz-adv-x="1046" d="M365 592V25Q365 0 340 0H221Q197 0 197 25V1378Q197 1403 221 1403H539Q571 1403 592 1403T649 1399T711 1389T771 1369T829 1338T878 1291T919 1226T944 1140T954 1030Q954 942 933 871T881 756T805
678T720 629T634 604T563 594T512 592H365ZM365 735H498Q526 735 545 736T597 743T653 759T703 791T746 841T774 916T786 1020Q786 1067 778 1104T758 1166T724 1209T683 1236T633 1251T580 1258T522 1260H365V735Z" />
<glyph unicode="Q" glyph-name="Q" horiz-adv-x="1138" d="M1112 -63L1004 -137Q982 -152 948 -129Q879 -85 772 25Q672 -29 571 -29Q106 -29 106 698Q106 829 122 937T166 1119T232 1251T312 1342T402 1397T493 1425T580 1432Q651 1432 711 1413T814 1362T892
1282T949 1188T987 1080T1011 972T1023 867T1029 775T1030 702Q1030 398 942 215Q910 150 897 137L891 131Q938 91 958 75T1012 34T1085 -14Q1088 -16 1094 -19T1104 -25T1112 -31T1118 -39T1120 -49Q1120 -55 1112 -63ZM567 109Q620 109 662 127T733 176T783 254T816
349T835 460T844 576T846 696Q846 764 844 819T835 938T815 1051T782 1147T733 1225T664 1275T571 1294Q518 1294 475 1275T404 1226T354 1148T321 1053T302 942T293 826T291 707Q291 627 294 564T307 428T336 302T385 203T460 133T567 109Z" />
<glyph unicode="R" glyph-name="R" horiz-adv-x="1079" d="M682 653L1022 33Q1030 17 1030 12Q1030 0 1008 -4L879 -29Q858 -33 848 -12L510 639H362V25Q362 0 338 0H219Q195 0 195 25V1378Q195 1403 219 1403H537Q578 1403 610 1401T688 1391T767 1369T837 1328T898
1265T937 1173T952 1047Q952 894 878 794T682 653ZM362 772H496Q524 772 538 772T588 777T644 790T695 818T742 863T771 931T784 1026Q784 1089 769 1133T730 1202T670 1239T600 1256T520 1260H362V772Z" />
<glyph unicode="S" glyph-name="S" horiz-adv-x="948" d="M834 1307L799 1219Q791 1200 780 1200Q773 1200 745 1214Q742 1215 723 1225T698 1238T673 1250T642 1262T611 1272T575 1280T538 1285T494 1288Q392 1288 333 1231T274 1083Q274 1047 282 1017T309 960T347
915T400 874T459 838T528 801Q635 746 709 690Q872 561 872 373Q872 295 845 224T768 96T635 5T451 -29Q364 -29 264 -3T86 63Q49 79 49 90Q49 103 53 111L88 199Q95 217 106 217Q116 217 152 197Q153 197 164 192T183 182T208 171T239 158T273 145T312 134T353
125T397 118T442 115Q509 115 559 137T636 196T675 272T688 352Q688 378 683 401T673 444T653 483T630 515T599 546T567 573T530 598T493 620T452 643T414 664Q378 684 360 694T308 725T258 759T213 795T171 837T139 882T112 936T97 996T90 1065Q90 1136 115 1201T189
1318T315 1401T487 1432Q658 1432 807 1352Q832 1338 836 1328T834 1307Z" />
<glyph unicode="T" glyph-name="T" horiz-adv-x="944" d="M545 1260V25Q545 0 520 0H401Q377 0 377 25V1260H72Q56 1260 52 1266T47 1284V1378Q47 1403 72 1403H879Q909 1403 899 1372L866 1282Q859 1260 834 1260H545Z" />
<glyph unicode="U" glyph-name="U" horiz-adv-x="1216" d="M1047 1378V377Q1047 354 1046 333T1036 268T1012 189T963 111T885 39T769 -9T608 -29T448 -10T331 39T254 110T206 188T181 268T171 333T170 377V1378Q170 1403 195 1403H313Q338 1403 338 1378V381Q338
349 342 319T362 249T405 179T485 130T608 109Q667 109 713 122T788 160T836 212T864 272T876 330T879 381V1378Q879 1403 903 1403H1022Q1047 1403 1047 1378Z" />
<glyph unicode="V" glyph-name="V" horiz-adv-x="1024" d="M971 1343L612 8Q611 3 610 0T607 -6T603 -10T599 -12T594 -13T590 -14T586 -14T582 -14H438Q437 -14 434 -14T430 -14T426 -14T422 -13T418 -10T414 -6T411 -1T408 8L53 1346Q52 1348 50 1356T47 1368Q47
1381 68 1386L133 1403L184 1415Q196 1416 202 1417T212 1412T217 1403T219 1393L479 315Q494 250 508 152H512Q517 192 543 311L803 1384Q808 1408 815 1413Q823 1419 840 1415L952 1386Q977 1378 977 1366Q977 1364 977 1362T975 1355T971 1343Z" />
<glyph unicode="W" glyph-name="W" horiz-adv-x="1441" d="M1241 1415L1356 1386Q1376 1381 1376 1368Q1376 1366 1376 1364T1374 1356T1372 1346L1092 10Q1087 -14 1067 -14H922Q901 -14 897 10L725 1143H721L508 10Q503 -14 483 -14H346Q327 -14 322 10L70 1346Q69
1350 68 1354T67 1361T66 1366Q66 1381 86 1386L201 1415Q221 1419 225 1410Q226 1408 227 1405Q228 1402 228 1399T229 1391T231 1380L406 383Q412 352 418 229L422 166H426L430 215Q443 355 451 395L647 1378Q650 1391 654 1396T661 1402T672 1403H791Q797 1403
798 1403T804 1401T811 1394T815 1378L985 367Q1003 254 1006 166H1010L1012 229Q1018 338 1024 369L1210 1380Q1215 1407 1221 1413T1241 1415Z" />
<glyph unicode="X" glyph-name="X" horiz-adv-x="985" d="M940 33L838 -10L833 -12Q828 -14 827 -14T822 -13T815 -9T808 1T797 18L547 479Q526 514 494 594L446 492L190 10Q189 8 185 2T180 -6Q171 -17 152 -10L49 25Q27 34 27 47Q27 54 32 63L37 72L393 731L63
1331Q53 1351 53 1352V1356Q53 1364 57 1368T76 1378L147 1403L178 1413Q184 1418 194 1417T213 1399L442 977L494 870Q518 929 547 985L762 1384Q773 1403 781 1410T791 1417T803 1413L905 1370Q928 1360 928 1348Q928 1340 918 1325L582 737L952 78Q963 62 963
55Q963 49 960 45T955 40T947 36T940 33Z" />
<glyph unicode="Y" glyph-name="Y" horiz-adv-x="985" d="M578 596V25Q578 0 553 0H434Q410 0 410 25V592L12 1346Q6 1358 6 1362Q6 1381 27 1386L98 1403L150 1415Q165 1419 172 1415Q182 1411 190 1391L502 750Q505 758 559 877L809 1395Q809 1396 811 1400T813
1404T816 1408T819 1412T822 1414T827 1416T832 1416T839 1417T848 1415L971 1386Q983 1382 987 1376Q994 1365 985 1346L578 596Z" />
<glyph unicode="Z" glyph-name="Z" horiz-adv-x="909" d="M874 119V25Q874 14 870 9T862 2T850 0H78Q53 0 53 25V135L655 1260H104Q80 1260 80 1274Q80 1280 84 1290L117 1380Q125 1403 150 1403H827Q852 1403 852 1378V1276L246 143H850Q861 143 866 139T873
131T874 119Z" />
<glyph unicode="[" glyph-name="bracketleft" horiz-adv-x="757" d="M647 -311V-389Q647 -405 641 -409T623 -414H262Q251 -414 245 -410T238 -389V1444Q238 1449 238 1450T239 1456T243 1463T251 1466T264 1468H623Q631 1468 635 1467T643 1461T647 1444V1366Q647
1341 623 1341H393V-287H623Q631 -287 635 -288T643 -294T647 -311Z" />
<glyph unicode="\" glyph-name="backslash" horiz-adv-x="903" d="M80 1483H162Q188 1483 197 1460L987 -395Q993 -413 993 -416Q993 -430 969 -430H887Q863 -430 854 -410L63 1446Q57 1464 57 1466Q57 1483 80 1483Z" />
<glyph unicode="]" glyph-name="bracketright" horiz-adv-x="757" d="M113 -389V-311Q113 -300 117 -295T125 -288T137 -287H367V1341H137Q113 1341 113 1366V1444Q113 1452 114 1456T120 1464T137 1468H496Q508 1468 514 1464T521 1456T522 1444V-389Q522 -405
516 -409T498 -414H137Q126 -414 120 -410T113 -389Z" />
<glyph unicode="^" glyph-name="asciicircum" horiz-adv-x="1024" d="M457 1403H569Q588 1403 596 1386L889 733Q899 711 899 707Q899 695 879 690L780 662Q759 655 750 674L512 1202L276 674Q271 659 256 659Q252 659 246 662L147 690Q127 695 127 707Q127 710
137 733L430 1386Q438 1403 457 1403Z" />
<glyph unicode="_" glyph-name="underscore" horiz-adv-x="1024" d="M0 -256V-154H1024V-256H0Z" />
<glyph unicode="`" glyph-name="grave" horiz-adv-x="1024" d="M209 1346L268 1434Q279 1450 289 1450Q294 1450 309 1440L614 1204Q623 1200 623 1190Q623 1185 614 1174L588 1135Q579 1126 573 1126T559 1130L219 1307Q218 1308 215 1309T210 1312T206 1316T202
1321T201 1327T209 1346Z" />
<glyph unicode="a" glyph-name="a" horiz-adv-x="948" d="M631 616V690Q631 720 629 742T616 791T587 834T537 862T459 874Q340 874 231 821Q207 809 201 809Q189 809 184 819L154 901Q149 914 156 925T171 940T197 952Q343 1012 477 1012Q630 1012 708 940T786
731V266Q786 182 811 119Q819 98 840 61Q848 50 848 45Q848 39 836 31L750 -23Q741 -28 736 -29T720 -21T696 10Q674 48 657 102L655 109L647 100Q621 74 603 59T549 19T468 -17T371 -29Q299 -29 244 -5T157 62T110 154T94 260Q94 295 99 328T123 402T172 476T256
540T383 588Q502 616 598 616H631ZM631 225V489H600Q570 489 541 487T468 478T389 455T320 416T269 354T250 266Q250 183 295 141T397 98Q457 98 518 136T618 213L631 225Z" />
<glyph unicode="b" glyph-name="b" horiz-adv-x="1024" d="M172 250V1430Q172 1450 188 1454L295 1481Q303 1483 313 1483Q328 1483 328 1456V907Q385 958 454 985T588 1012Q635 1012 677 1002T765 962T844 882T898 746T920 545Q920 448 911 369T876 213T809 86T700
3T543 -29Q386 -29 285 72Q279 57 271 38T246 -5T217 -29Q212 -29 199 -20L121 31Q109 39 109 47Q109 52 113 58T127 81T147 121Q172 176 172 250ZM328 772V186Q375 153 431 131T530 109Q574 109 608 123T666 158T705 216T731 287T745 371T751 459T752 551Q752
611 749 652T734 738T701 811T642 856T551 874Q463 874 371 805L328 772Z" />
<glyph unicode="c" glyph-name="c" horiz-adv-x="894" d="M819 874L770 782Q766 774 760 774Q752 774 735 788Q676 834 633 854T535 874Q484 874 443 857T376 815T331 751T303 681T288 607T282 542T281 492Q281 454 282 422T289 349T305 276T332 212T374 158T435
123T516 109Q611 109 741 180Q756 188 766 190H770Q778 190 780 180L817 88Q819 84 819 76Q819 62 743 25Q625 -29 512 -29Q452 -29 399 -16T292 31T200 120T137 265T113 471Q113 606 147 712T240 882T370 979T522 1012Q665 1012 786 926Q831 894 819 874Z" />
<glyph unicode="d" glyph-name="d" horiz-adv-x="1024" d="M854 1456V324Q854 316 854 296T854 268T854 243T855 217T857 194T861 169T866 147T874 123Q881 103 891 86T907 59T913 45Q913 39 895 27L815 -23Q796 -35 777 -15T745 34T725 92L709 80Q565 -29 440
-29Q413 -29 387 -25T326 -8T262 28T202 89T151 179T117 307T104 477Q104 614 131 716T197 873T290 961T384 1003T469 1012Q595 1012 698 942V1430Q698 1450 715 1454L821 1481Q829 1483 840 1483Q854 1483 854 1456ZM698 229V807Q581 874 494 874Q451 874 417
862T359 831T320 780T294 719T280 647T274 571T272 492Q272 448 272 422T276 351T286 277T306 213T338 157T386 123T453 109Q530 109 662 203L698 229Z" />
<glyph unicode="e" glyph-name="e" horiz-adv-x="956" d="M801 180L838 88Q840 84 840 76Q840 62 764 25Q646 -29 532 -29Q468 -29 408 -14T289 39T185 134T114 283T86 492Q86 735 201 873T496 1012Q542 1012 583 1003T667 974T745 915T806 823T849 688T864 504V494Q864
473 859 466T842 459H254V449Q254 363 278 296T344 189T435 129T537 109Q638 109 762 180Q778 188 786 190H791Q798 190 801 180ZM254 586H696Q696 684 664 760Q612 885 481 885Q389 885 323 812T254 586Z" />
<glyph unicode="f" glyph-name="f" horiz-adv-x="645" d="M365 856V25Q365 0 340 0H233Q209 0 209 25V856H76Q51 856 51 881V958Q51 983 76 983H209V1143Q209 1218 219 1273T262 1378Q337 1483 494 1483Q508 1483 521 1483T548 1480T571 1477T594 1471T614 1466T634
1460T650 1454T667 1447T682 1442Q725 1424 715 1399L680 1315Q677 1303 666 1303Q653 1303 616 1317Q546 1346 487 1346Q417 1346 387 1303Q365 1271 365 1174V983H659Q689 983 680 954L653 874Q647 856 627 856H365Z" />
<glyph unicode="g" glyph-name="g" horiz-adv-x="1024" d="M846 741V395L860 -70Q863 -161 837 -231T760 -344T645 -408T500 -430Q419 -430 336 -411T201 -362Q199 -361 188 -355T172 -345T162 -335T156 -322Q156 -321 162 -303L197 -225Q202 -215 211 -213Q219
-213 254 -231Q296 -252 364 -272T500 -293Q713 -293 705 -72L698 139Q568 27 422 27Q357 27 301 53T200 133T130 274T104 479Q104 599 127 693T187 846T276 943T378 997T485 1012Q548 1012 613 990T721 936L735 926Q739 937 741 942T747 958T755 975T763 990T773
1003T783 1010T795 1013T809 1008L901 950Q909 945 909 938V936Q909 930 899 913Q846 827 846 741ZM690 266V819Q654 842 597 858T502 874Q272 874 272 504Q272 459 274 423T283 346T301 274T333 217T382 178T451 164Q547 164 690 266Z" />
<glyph unicode="h" glyph-name="h" horiz-adv-x="1062" d="M172 25V1430Q172 1450 188 1454L295 1481Q303 1483 313 1483Q328 1483 328 1456V872Q487 1012 653 1012Q703 1012 742 1000T806 971T849 925T875 873T887 813T892 757T893 705V25Q893 0 868 0H762Q737
0 737 25V709Q737 732 737 745T729 786T708 830T667 860T598 874Q519 874 448 835T328 750V25Q328 0 303 0H197Q172 0 172 25Z" />
<glyph unicode="i" glyph-name="i" horiz-adv-x="571" d="M389 952V25Q389 14 385 9T377 2T365 0H258Q233 0 233 25V856H74Q49 856 49 881V958Q49 983 74 983H362Q389 983 389 952ZM428 1397T428 1343T392 1253T301 1217T211 1253T174 1343T210 1433T301 1470T391 1434Z" />
<glyph unicode="j" glyph-name="j" horiz-adv-x="571" d="M389 952V-109Q389 -145 385 -179T363 -261T316 -345T229 -405T94 -430Q-30 -430 -135 -379Q-169 -362 -158 -334L-119 -248Q-114 -238 -102 -238H-100Q-95 -238 -89 -241T-68 -251T-37 -264Q37 -293 92
-293Q122 -293 145 -287T182 -269T207 -243T223 -209T231 -171T234 -131T233 -92Q233 -79 233 -72V856H72Q47 856 47 881V958Q47 983 72 983H362Q389 983 389 952ZM428 1397T428 1343T392 1253T301 1217T211 1253T174 1343T210 1433T301 1470T391 1434Z" />
<glyph unicode="k" glyph-name="k" horiz-adv-x="915" d="M496 528L860 66Q870 56 870 47Q870 40 864 37L780 -20Q779 -21 776 -23T769 -27T762 -29T754 -27T748 -23T743 -17T739 -12L322 504H317V25Q317 0 293 0H186Q162 0 162 25V1430Q162 1450 178 1454L285
1481Q293 1483 303 1483Q317 1483 317 1456V532L729 999Q742 1012 750 1012T764 1006L844 950Q856 942 856 934Q856 925 842 911L496 528Z" />
<glyph unicode="l" glyph-name="l" horiz-adv-x="530" d="M518 113L547 33Q553 17 539 8Q469 -29 375 -29Q275 -29 217 23Q174 60 162 133Q154 180 154 305V1430Q154 1450 170 1454L276 1481Q284 1483 295 1483Q309 1483 309 1456V291Q309 189 315 160Q330 98
401 98Q437 98 481 117Q501 125 510 125Q513 125 515 120T518 113Z" />
<glyph unicode="m" glyph-name="m" horiz-adv-x="1476" d="M176 25V727Q176 864 143 928Q137 940 137 942Q137 949 147 954L240 1006Q264 1020 276 993Q302 941 309 889Q385 951 448 981T598 1012Q735 1012 788 889Q881 956 948 984T1079 1012Q1141 1012 1185
991T1252 941T1288 865T1304 785T1307 705V25Q1307 0 1282 0H1176Q1151 0 1151 25V709Q1151 874 1018 874Q943 874 836 803L819 791V25Q819 14 815 9T807 2T795 0H688Q681 0 677 1T668 8T664 25V709Q664 874 530 874Q475 874 430 854T332 791V25Q332 0 307 0H201Q176
0 176 25Z" />
<glyph unicode="n" glyph-name="n" horiz-adv-x="1062" d="M178 25V760Q178 844 154 897L147 909Q137 927 137 940Q137 947 147 952L244 1006Q250 1014 262 1012T287 983Q311 937 319 872Q480 1012 659 1012Q707 1012 745 1001T807 972T849 927T874 875T887 816T892
759T893 705V25Q893 0 868 0H762Q737 0 737 25V709Q737 733 736 750T727 793T706 834T667 862T604 874Q532 874 459 837T334 750V25Q334 0 309 0H203Q178 0 178 25Z" />
<glyph unicode="o" glyph-name="o" horiz-adv-x="1024" d="M455 1012T512 1012T622 998T731 947T827 853T894 703T920 492T894 281T828 131T732 37T623 -14T512 -29T402 -15T293 37T197 131T130 281T104 492T130 703T196 852T292 946T401 998ZM559 885T512 885T427
869T365 827T322 764T294 692T280 616T273 548T272 492T273 437T279 368T294 292T321 221T364 158T427 115T512 98T597 115T659 157T702 220T730 292T744 368T751 436T752 492T751 547T745 616T730 692T703 763T660 826T597 868Z" />
<glyph unicode="p" glyph-name="p" horiz-adv-x="1028" d="M184 -408V717Q184 823 137 907Q123 928 123 936Q123 945 133 950L221 1006Q240 1017 256 1001Q293 964 311 891L328 903Q472 1012 596 1012Q622 1012 647 1008T706 991T771 956T831 895T883 803T918
672T932 498Q932 401 918 322T882 189T827 95T763 31T692 -6T624 -24T563 -29Q449 -29 340 41V-377Q340 -397 324 -401L225 -426Q184 -438 184 -408ZM340 774V176Q384 149 443 129T555 109Q597 109 629 121T683 151T720 201T744 262T757 337T763 416T764 502Q764
555 762 594T754 679T733 757T698 817T642 860T561 874Q469 874 340 774Z" />
<glyph unicode="q" glyph-name="q" horiz-adv-x="985" d="M844 733V-377Q844 -397 829 -401L717 -428Q699 -432 694 -428T688 -408V92L676 82Q672 79 665 73Q627 42 604 25T533 -10T438 -29Q391 -29 347 -14T257 39T178 134T123 285T102 496Q102 628 134 730T220
892T339 982T479 1012Q601 1012 729 913L735 928Q760 986 778 1004Q789 1012 792 1012T807 1006L883 963Q899 955 899 944V942Q899 933 889 918L885 909Q844 827 844 733ZM688 227V795L668 807Q665 809 658 813Q627 832 608 842T555 863T487 874Q270 874 270 504Q270
419 278 354T307 231T369 141T471 109Q510 109 553 129T618 166T672 213L688 227Z" />
<glyph unicode="r" glyph-name="r" horiz-adv-x="645" d="M307 840L336 872Q361 901 368 910T403 944T448 980T497 1001T557 1012Q592 1012 635 995Q659 987 649 967L600 854Q596 842 588 842Q585 842 583 843T575 847T565 852Q549 860 528 860Q462 860 362 739L330
698V25Q330 0 305 0H199Q174 0 174 25V727Q174 808 139 883L125 911Q117 927 117 934Q117 945 125 950L207 1004Q210 1006 213 1008T217 1011T221 1012H225Q241 1010 260 979Q295 915 307 840Z" />
<glyph unicode="s" glyph-name="s" horiz-adv-x="796" d="M670 913L635 838Q629 823 614 823Q606 825 597 830T584 836Q490 879 414 879Q335 879 296 840T256 741Q256 712 266 688T291 647T336 611T388 582T455 551Q492 534 509 526T560 500T609 467T649 430T683
383T702 327T711 256Q711 165 663 99T541 2T383 -29Q309 -29 231 -8T106 37L98 42Q91 46 87 49T77 58T72 70Q72 82 74 84L113 166Q116 176 125 176H131Q134 176 186 152Q226 132 283 118T387 104Q467 104 511 144T555 252Q555 273 550 291T538 321T514 349T487
372T448 395T407 415T358 438T302 464T251 492T201 524T161 561T128 608T109 663T100 731Q100 855 183 933T401 1012Q463 1012 545 991Q606 975 651 950Q680 934 670 913Z" />
<glyph unicode="t" glyph-name="t" horiz-adv-x="720" d="M358 856V274Q358 241 359 222T366 179T385 141T420 119T477 109Q555 109 645 152Q669 164 674 164H678Q682 164 685 163T689 160T691 155L692 152L717 72Q719 62 719 54T698 33T633 4Q548 -29 455 -29Q328
-29 262 43Q226 84 215 137T203 274V856H59Q52 856 48 857T39 864T35 881V958Q35 974 41 978T59 983H203V1264Q203 1281 225 1288L334 1319Q341 1321 346 1321T353 1320T357 1315T358 1310T358 1304T358 1298V983H662Q691 983 682 954L655 874Q649 856 629 856H358Z"
/>
<glyph unicode="u" glyph-name="u" horiz-adv-x="1060" d="M754 76L748 92Q666 25 594 -2T444 -29Q370 -29 317 -10T235 38T190 110T169 192T164 279V958Q164 980 178 983L289 1010Q311 1014 317 1006Q319 1002 319 993V274Q319 185 364 147T477 109Q585 109 721
213V958Q721 980 735 983L846 1010Q865 1015 870 1010Q874 1010 874 1006Q877 1000 877 993V219Q877 183 893 137Q897 124 903 112T916 88T924 74Q926 70 930 64T936 53T938 45Q938 37 922 29L840 -23Q813 -39 788 4Q762 52 754 76Z" />
<glyph unicode="v" glyph-name="v" horiz-adv-x="909" d="M768 995L877 967Q895 962 895 952Q895 950 893 945T891 938L520 4Q520 3 519 0T517 -5T514 -8T510 -11T505 -13T496 -14H414Q403 -14 399 -12Q393 -8 389 4L43 944Q37 955 43 961Q46 964 59 967L127 983L168
995Q189 1002 195 981L422 315Q445 251 459 186H463Q466 208 471 229T481 261T491 290T500 313L741 981Q746 991 748 993Q756 999 768 995Z" />
<glyph unicode="w" glyph-name="w" horiz-adv-x="1290" d="M627 983H709Q729 983 733 963L901 279Q913 229 915 193H920Q922 239 932 279L1106 977Q1112 1002 1133 995L1235 967Q1252 963 1245 940L977 6Q973 -7 968 -10T952 -14H870Q863 -14 859 -13T852 -9T849
-4T847 1T846 6L684 627Q664 704 662 782H657Q647 698 627 629L434 6L432 2Q431 -1 430 -3T427 -8T421 -12T412 -14H330Q313 -14 307 6L76 934Q75 938 74 942T73 948T72 952Q72 963 84 967L186 995Q200 1000 207 993Q210 990 213 977L360 305Q374 247 381 193H385Q389
231 408 305L602 963Q609 983 627 983Z" />
<glyph unicode="x" glyph-name="x" horiz-adv-x="909" d="M711 2L520 287Q478 348 455 395Q439 371 381 287L180 0Q172 -12 165 -14T137 -10L39 31Q27 35 27 43Q27 53 35 61L375 502L78 922Q70 933 70 938Q70 948 86 954L158 983L182 993Q193 1000 203 996T216
990T223 981L455 618L698 981Q709 997 723 997Q733 997 741 993L836 954Q849 949 851 943T844 922L537 518L856 61Q864 50 864 45Q864 36 852 31L752 -10Q744 -14 735 -14Q722 -14 711 2Z" />
<glyph unicode="y" glyph-name="y" horiz-adv-x="911" d="M766 993L866 952Q877 947 879 940Q882 933 877 913L625 76Q542 -199 500 -281Q471 -338 425 -373T340 -419T258 -430Q206 -430 150 -414Q89 -397 18 -354Q-6 -340 4 -315L45 -233Q50 -223 59 -223Q64
-223 69 -225T82 -234T96 -244Q184 -303 254 -303Q290 -303 317 -285Q373 -247 412 -129L455 0H381Q360 0 354 18L33 922Q25 945 45 952L123 983L141 991Q159 997 166 997Q181 997 186 981L444 207Q465 144 483 68L485 59H489Q493 94 520 203L725 981Q728 997 745
997Q758 997 766 993Z" />
<glyph unicode="z" glyph-name="z" horiz-adv-x="858" d="M266 133H772Q804 133 795 109L756 18Q749 0 729 0H90Q74 0 72 5Q68 11 68 25V106L582 850H133Q122 850 117 854T110 862T109 874V958Q109 960 109 964T109 970T110 975T113 980T121 982T133 983H752Q759
983 764 982T771 980T775 976T776 971T776 965T776 958V874L266 133Z" />
<glyph unicode="{" glyph-name="braceleft" horiz-adv-x="872" d="M788 1368Q788 1343 764 1343H725Q661 1343 621 1329T563 1285T540 1228T535 1157V793Q535 751 531 721T513 657T469 596T393 547Q439 526 469 499T512 437T530 373T535 301V-63Q535 -97 537 -120T551
-170T581 -212T637 -239T725 -250H764Q775 -250 780 -254T787 -262T788 -274V-352Q788 -368 782 -372T764 -377H719Q691 -377 671 -376T613 -369T547 -352T485 -317T430 -261T394 -177T379 -61V303Q379 353 367 388T337 442T293 471T245 483T197 485H154Q129 485
129 510V584Q129 595 133 601T154 608H197Q225 608 245 610T292 622T337 651T366 705T379 791V1155Q379 1219 394 1270T430 1354T485 1410T546 1445T612 1462T671 1469T719 1470H764Q775 1470 780 1466T787 1458T788 1446V1368Z" />
<glyph unicode="|" glyph-name="bar" horiz-adv-x="622" d="M385 1511V-487Q385 -512 360 -512H262Q255 -512 251 -511T242 -504T238 -487V1511Q238 1536 262 1536H360Q385 1536 385 1511Z" />
<glyph unicode="}" glyph-name="braceright" horiz-adv-x="872" d="M84 -352V-274Q84 -250 109 -250H147Q199 -250 235 -239T291 -213T322 -170T335 -120T338 -63V301Q338 343 342 372T359 436T403 498T479 547Q433 568 403 595T360 657T342 721T338 793V1157Q338
1191 336 1214T322 1263T292 1306T236 1332T147 1343H109Q84 1343 84 1368V1446Q84 1453 85 1457T92 1466T109 1470H154Q182 1470 202 1469T260 1462T326 1445T388 1411T443 1355T479 1271T494 1155V791Q494 741 506 706T536 652T580 623T628 610T676 608H719Q730
608 735 604T742 596T743 584V510Q743 485 719 485H676Q648 485 628 483T581 471T536 443T507 389T494 303V-61Q494 -125 479 -176T443 -260T388 -316T326 -351T260 -369T202 -376T154 -377H109Q84 -377 84 -352Z" />
<glyph unicode="~" glyph-name="asciitilde" horiz-adv-x="1009" d="M877 643L934 608Q935 607 939 605T946 601T948 594Q948 582 934 561Q910 523 888 497T834 443T759 401T664 387Q610 387 568 401T477 444Q435 470 418 479T366 501T299 514Q193 514 127 416Q119
403 110 400T97 398T84 406L27 440Q26 441 23 442T17 445T14 450T12 457Q12 467 29 494Q141 664 297 664Q340 664 382 652T445 629T506 596Q589 549 615 542Q639 535 668 535Q764 535 831 631Q844 651 857 651T877 643Z" />
</font>
</defs>
</svg>
